PDA

Ver la versión completa : Not Another Not Another Movie (2011) [Hive-CM8]



stargate
31-08-2011, 02:01:20
Not Another Not Another Movie (2011)http://imagenes.subadictos.net/afiche/13689.jpgUn estudio de cine está dispuesto a hacer cualquier cosa para conseguir dinero, aunque para eso significa arruinar su repuntacion y tirar la industria del cine por el suelo. David Murphy.
Chevy Chase, Burt Reynolds, David Schultz, Jennifer Sciole, Vinnie Jones
.
Estados Unidos.
Comedia.
82
???tt1302019Bajar PelículaBajar Película
Fileserve


http://www.fileserve.com/file/cC7sw6M/Not.Another.Not.Another.Movie.2011.HDRip.XVID.AC3. HQ.Hive-CM8.avi.part1.rar
http://www.fileserve.com/file/PErUsU7/Not.Another.Not.Another.Movie.2011.HDRip.XVID.AC3. HQ.Hive-CM8.avi.part2.rarwupload


http://www.wupload.com/file/129771557/Not.Another.Not.Another.Movie.2011.HDRip.XVID.AC3. HQ.Hive-CM8.avi.part1.rar
http://www.wupload.com/file/129771136/Not.Another.Not.Another.Movie.2011.HDRip.XVID.AC3. HQ.Hive-CM8.avi.part2.rarFilesonic


http://www.filesonic.com/file/1811497431/Not.Another.Not.Another.Movie.2011.HDRip.XVID.AC3. HQ.Hive-CM8.avi.part1.rar
http://www.filesonic.com/file/1811497191/Not.Another.Not.Another.Movie.2011.HDRip.XVID.AC3. HQ.Hive-CM8.avi.part2.rar

stargate
31-08-2011, 02:02:55
Info:


General
Complete name : Not.Another.Not.Another.Movie.2011.HDRip.XVID.AC3. HQ.Hive-CM8.avi
Format : AVI
Format/Info : Audio Video Interleave
File size : 1.38 GiB
Duration : 1h 39mn
Overall bit rate : 1 999 Kbps
Writing application : Nandub v1.0rc2
Writing library : Nandub build 1853/release

Video
ID : 0
Format : MPEG-4 Visual
Format profile : Advanced Simple@L5
Format settings, BVOP : 2
Format settings, QPel : Yes
Format settings, GMC : No warppoints
Format settings, Matrix : Default (H.263)
Muxing mode : Packed bitstream
Codec ID : XVID
Codec ID/Hint : XviD
Duration : 1h 39mn
Bit rate : 1 798 Kbps
Width : 720 pixels
Height : 400 pixels
Display aspect ratio : 16:9
Frame rate : 23.976 fps
Color space : YUV
Chroma subsampling : 4:2:0
Bit depth : 8 bits
Scan type : Progressive
Compression mode : Lossy
Bits/(Pixel*Frame) : 0.260
Stream size : 1.25 GiB (90%)
Writing library : XviD 1.2.1 (UTC 2008-12-04)

Audio
ID : 1
Format : AC-3
Format/Info : Audio Coding 3
Mode extension : CM (complete main)
Codec ID : 2000
Duration : 1h 39mn
Bit rate mode : Constant
Bit rate : 192 Kbps
Channel(s) : 2 channels
Channel positions : Front: L R
Sampling rate : 48.0 KHz
Bit depth : 16 bits
Compression mode : Lossy
Stream size : 136 MiB (10%)
Alignment : Split accross interleaves
Interleave, duration : 42 ms (1.00 video frame)
Interleave, preload duration : 500 ms


Plot:
Follows a struggling movie studio that's willing to do anything to make a mint.
Even if it means ruining their reputation and running the movie industry into
the ground.


Cast:
Chevy Chase ... Max Storm
Burt Reynolds ... C.J. Waters
David Schultz ... Randy
Jennifer Sciole ... Amanda
Vinnie Jones ... Nancy
Michael Madsen ... Lester Storm

Capturas

http://img14.imageshack.us/img14/4263/80268862.png
http://img191.imageshack.us/img191/4918/57188863.png
http://img21.imageshack.us/img21/3249/34382524.png
http://img190.imageshack.us/img190/728/42002389.png
http://img851.imageshack.us/img851/2175/86626413.png
http://img534.imageshack.us/img534/9312/74049249.png
http://img819.imageshack.us/img819/8780/57868578.png
http://img197.imageshack.us/img197/6756/73471540.png

McalvinoV
31-08-2011, 11:09:59
a la espera del sub a ver q tal :D

gracias

stargate
31-08-2011, 11:13:36
De nada Mario :):):)

Esfingo
01-09-2011, 06:18:18
habeis escrito la sinopsis de "Another teen movie"

stargate
01-09-2011, 08:11:15
Arreglado, gracias por el aviso :):):)

42d3e78f26a4b20d412==