Resultados 1 al 3 de 3

Tema: Gang of Roses 2: Next Generation (2012) [UnKnOwN]

  1. #1
    Administrador Avatar de McalvinoV
    Fecha de ingreso
    20-02-2010
    Ubicación
    Panamanicomio
    Edad
    42
    Mensajes
    130,019
    Agradecimientos: 125934

    Estados Unidos Gang of Roses 2: Next Generation (2012) [UnKnOwN]

    Gang of Roses 2: Next Generation (2012)
    Sinopsis:
    Cassie, la última miembro de la banda original de las Rosas, está sentada en una pequeña cárcel mexicana. Es ahí donde conoce a Collette (Eurika Pratts), una jugadora joven que busca a su próxima compañera. Después de una larga planificación, se preparan para el robo, que tendrá lugar en la iglesia del pueblo. Pero, sin saberlo, están siendo seguidas por Lee (Gabriel Casseus) y su pandilla de bandidos, buscan tender una emboscada a las mujeres antes de que puedan hacer su gran golpe.
    Datos Película:
    Director: Jean-Claude La Marre.
    Reparto: Charli Baltimore, Gabriel Casseus and Lamont Clayton.
    País: Estados Unidos.
    Género: Western.
    Duración: 84 Minutos.
     
    E-links:
    Bajar Película
    Torrent / Magnet:
    Bajar Película
    Subtítulos:
    No Disponible
    Descargas Directas:

    Uploaded
    http://ul.to/xyhuj3h2
    Netload
    http://netload.in/dateiEcZzi7anrk/gor2UnKnOwN.avi.htm
    Fileserve
    http://www.fileserve.com/file/3Cmukmv/gor2UnKnOwN.avi
    Última edición por McalvinoV; 15-02-2012 a las 19:59:35


  2. Los siguientes 2 usuarios agradecen el post de McalvinoV:


  3. #2
    Administrador Avatar de McalvinoV
    Fecha de ingreso
    20-02-2010
    Ubicación
    Panamanicomio
    Edad
    42
    Mensajes
    130,019
    Agradecimientos: 125934

    Predeterminado

    Encoded By .......:UnKnOwN                                                   ³
    ³ Runtime ..........:1:24                                                      ³
    ³ IMDb URL .........:http://www.imdb.com/title/tt2051886/                      ³
    ³ Language .........:English                                                   ³
    ³ File Size ........:982mb                                                     ³
    ³ Release Date ......... 2012                                                  ³
    ³ Source       ......... Cheers M8                                             ³
    ³ File Type    ......... Single AVI                                            ³
    ³ PS3 Compatible ....... Go For It                                             ³
    ³ Genre        ......... Western/Action                                        ³
    ³                                                                              ³
    ³                                                                              ³
    ³ Video                                                                        ³
    ³  ID                               : 0                                        ³
    ³  Format                           : MPEG-4 Visual                            ³
    ³  Format profile                   : Advanced Simple@L5                       ³ 
    ³  Format settings, BVOP            : Yes                                      ³ 
    ³  Format settings, QPel            : No                                       ³ 
    ³  Format settings, GMC             : No warppoints                            ³ 
    ³  Format settings, Matrix          : Custom                                   ³ 
    ³  Codec ID                         : XVID                                     ³ 
    ³  Codec ID/Hint                    : XviD                                     ³ 
    ³  Duration                         : 1h 24mn                                  ³ 
    ³  Bit rate                         : 1680Kbps                                 ³ 
    ³  Width                            : 680ixels                                 ³ 
    ³  Height                           : 364pixels                                ³ 
    ³  Display aspect ratio             : 1.8.5                                    ³ 
    ³  Frame rate                       : 23.997fps                                ³ 
    ³  Color space                      : YUV                                      ³ 
    ³  Chroma subsampling               : 4:2:0                                    ³ 
    ³  Bit depth                        : 8 bits                                   ³ 
    ³  Scan type                        : Progressive                              ³ 
    ³  Bits/(Pixel*Frame)               : 0.234                                    ³ 
    ³  Stream size                      : 892 MiB (86%)                            ³ 
    ³  Writing library                  : XviD 1.2.1 (UTC 2008-12-04)              ³
    ³                                                                              ³
    ³                                                                              ³
    ³ Audio                                                                        ³ 
    ³ ID                               : 1                                         ³ 
    ³ Format                           : MP3                                       ³ 
    ³ Format/Info                      : MPEG                                      ³ 
    ³ Mode extension                   : CM (complete main)                        ³ 
    ³ Codec ID                         : 2000                                      ³ 
    ³ Duration                         : 1h 24mn                                   ³ 
    ³ Bit rate mode                    : Constant                                  ³ 
    ³ Bit rate                         : 128kbps                                   ³ 
    ³ Channel(s)                       : 2channels                                 ³ 
    ³ Channel positions                : Front: L R                                ³ 
    ³ Sampling rate                    : 48.0 KHz                                  ³ 
    ³ Bit depth                        : 16 bits                                   ³ 
    ³ Stream size                      : 302 MiB                                   ³ 
    ³ Alignment                        : Aligned on interleaves                    ³ 
    ³ Interleave, duration             : 42 ms (1.00 video frame)                  ³ 
    ³ Interleave, preload duration     : 512 ms
    Capturas
    Spoiler:
    SPOILER:







    Última edición por McalvinoV; 15-02-2012 a las 19:57:54

  4. Los siguientes usuarios agradecen a McalvinoV por este tema:

     juss54

  5. #3
    Adicto Sin Retorno Avatar de valekiara
    Fecha de ingreso
    04-02-2010
    Mensajes
    601
    Agradecimientos: 19

    Predeterminado

    Alguien se atrevio con esto? y si es así, podria comentarlo?

    gracias por el aporte

Información de tema

Usuarios viendo este tema

Actualmente hay 1 usuarios viendo este tema. (0 miembros y 1 visitantes)

Temas similares

  1. Days of Wine and Roses (1962) [FRAGMENT]
    Por McalvinoV en el foro Romance (+)
    Respuestas: 2
    Último mensaje: 13-06-2017, 03:58:24
  2. Respuestas: 26
    Último mensaje: 12-03-2017, 17:02:44
  3. Bread and Roses (2000) [WAF]
    Por hacu en el foro Drama (+)
    Respuestas: 4
    Último mensaje: 05-05-2015, 23:12:00
  4. The War of the Roses (1989) [WAF - YIFY]
    Por the darkness en el foro Comedia (+)
    Respuestas: 9
    Último mensaje: 21-03-2014, 22:46:03
  5. Generation Um... (2012) [PLAYNOW]
    Por Simonrag en el foro Drama (+)
    Respuestas: 8
    Último mensaje: 02-07-2013, 15:54:49

Miembros que han leído este tema: 0

Permisos de publicación

  • No puedes crear nuevos temas
  • No puedes responder temas
  • No puedes subir archivos adjuntos
  • No puedes editar tus mensajes
  •