Resultados 1 al 8 de 8

Tema: You and I (2011) [Feel-Free]

  1. #1
    Administrador Avatar de McalvinoV
    Fecha de ingreso
    20-02-2010
    Ubicación
    Panamanicomio
    Edad
    42
    Mensajes
    144,581
    Agradecimientos: 151894

    Estados Unidos You and I (2011) [Feel-Free]

    You and I (2011)
    Sinopsis:
    Narra la historia de dos bellas jóvenes de mundos muy diferentes, la rusa Lana Starkova (Mischa Barton) y la americana Janie Sawyer (Shantel VanSanten). Las dos son fans del grupo musical t.A.T.U. y se conocen en uno de sus conciertos. A partir de ese momento se harán íntimas amigas y se verán seducidas por el lujo y el glamour de la élite con dinero de Moscú, pero también descubrirán su lado oscuro...
    Datos Película:
    Director: Roland Joffé.
    Reparto: Mischa Barton, Shantel VanSanten, Anton Yelchin, Charlie Creed-Miles, Alex Kaluzhsky, Helena Mattsson, Bronson Pinchot, Lena Katina, Julia Volkova, Igor Desyatnikov, Aleksandr Byelonogov.
    País: Estados Unidos.
    Género: Thriller. Drama, Adolescencia. Homosexualidad. Amistad.
    Duración: 100 Minutos.
    Más Detalles en Film Affinity
     
    E-links:
    Bajar Película
    Torrent / Magnet:
    Bajar Película
    Subtítulos:
    Bajar Subtítulos en Español
    Última edición por hacu; 06-11-2013 a las 21:01:04


  2. Los siguientes 4 usuarios agradecen el post de McalvinoV:


  3. #2
    Administrador Avatar de McalvinoV
    Fecha de ingreso
    20-02-2010
    Ubicación
    Panamanicomio
    Edad
    42
    Mensajes
    144,581
    Agradecimientos: 151894

    Predeterminado

    Format : AVI
    Format/Info : Audio Video Interleave
    File size : 1.33 GiB
    Duration : 1h 40mn
    Overall bit rate : 1 887 Kbps
    
    
    Video
    ID : 0
    Format : MPEG-4 Visual
    Format profile : Advanced [email protected]
    Format settings, BVOP : 1
    Format settings, QPel : No
    Format settings, GMC : No warppoints
    Format settings, Matrix : Default (H.263)
    Codec ID : XVID
    Codec ID/Hint : XviD
    Duration : 1h 40mn
    Bit rate : 1 430 Kbps
    Width : 640 pixels
    Height : 264 pixels
    Display aspect ratio : 2.40:1
    Frame rate : 23.976 fps
    Color space : YUV
    Chroma subsampling : 4:2:0
    Bit depth : 8 bits
    Scan type : Progressive
    Compression mode : Lossy
    Bits/(Pixel*Frame) : 0.353
    Stream size : 1.01 GiB (76%)
    Writing library : XviD 1.2.1 (UTC 2008-12-04)
    
    Audio
    ID : 1
    Format : AC-3
    Format/Info : Audio Coding 3
    Mode extension : CM (complete main)
    Codec ID : 2000
    Duration : 1h 40mn
    Bit rate mode : Constant
    Bit rate : 448 Kbps
    Channel(s) : 6 channels
    Channel positions : Front: L C R, Side: L R, LFE
    Sampling rate : 48.0 KHz
    Bit depth : 16 bits
    Compression mode : Lossy
    Stream size : 323 MiB (24%)
    Alignment : Aligned on interleaves
    Interleave, duration : 42 ms (1.00 video frame)
    Interleave, preload duration : 512 ms

  4. #3
    Adicto Sin Retorno Avatar de Simonrag
    Fecha de ingreso
    05-02-2010
    Mensajes
    14,329
    Agradecimientos: 4067

    Predeterminado

    Dicen ser ripeados de un subpack para la versión FRAGMENT

    http://www.subdivx.com/X6XMjc0OTY1X-you-and-i-2011.html

    Colgamos el teclado y el mouse por un internet libre.. únete.

    (Deja las Gracias )

  5. #4
    Administrador Avatar de McalvinoV
    Fecha de ingreso
    20-02-2010
    Ubicación
    Panamanicomio
    Edad
    42
    Mensajes
    144,581
    Agradecimientos: 151894

    Predeterminado

    Gracias Simon, esperando comentarios del sub

  6. #5
    Adicto Sin Retorno Avatar de Simonrag
    Fecha de ingreso
    05-02-2010
    Mensajes
    14,329
    Agradecimientos: 4067

    Predeterminado

    Agregados los sub por unos que dicen de "aRGENTeaM "

  7. #6
    Administrador Avatar de McalvinoV
    Fecha de ingreso
    20-02-2010
    Ubicación
    Panamanicomio
    Edad
    42
    Mensajes
    144,581
    Agradecimientos: 151894

    Predeterminado

    Gracias

  8. #7
    Adicto Sin Retorno Avatar de cgman
    Fecha de ingreso
    25-04-2010
    Ubicación
    38.870997,-77.055957
    Mensajes
    725
    Agradecimientos: 40

    Predeterminado

    no message .
    Última edición por cgman; 07-05-2012 a las 19:59:47

  9. #8
    Amigos de SubAdictos Avatar de hacu
    Fecha de ingreso
    13-02-2010
    Mensajes
    6,939
    Agradecimientos: 5073

    Predeterminado

    Eliminadas DDs offline.

    Saludos !

Información de tema

Usuarios viendo este tema

Actualmente hay 1 usuarios viendo este tema. (0 miembros y 1 visitantes)

Temas similares

  1. Enter Nowhere (2011) [Feel-Free]
    Por McalvinoV en el foro Terror / Horror (+)
    Respuestas: 16
    Último mensaje: 14-12-2015, 09:53:09
  2. Bat $#*! Crazy (2011) [Feel-Free]
    Por McalvinoV en el foro Thriller / Crimen
    Respuestas: 2
    Último mensaje: 29-10-2013, 05:26:39
  3. Foster (2011) [OCW/Feel-Free]
    Por supernatural en el foro Comedia (+)
    Respuestas: 8
    Último mensaje: 06-04-2013, 02:23:18
  4. Hindenburg (2011) [Feel-Free]
    Por rapsi en el foro Acción (+)
    Respuestas: 3
    Último mensaje: 03-03-2013, 14:56:07
  5. The Entitled (2011) [Feel-Free]
    Por McalvinoV en el foro Thriller / Crimen (+)
    Respuestas: 3
    Último mensaje: 06-09-2011, 22:27:25

Miembros que han leído este tema: 3

Permisos de publicación

  • No puedes crear nuevos temas
  • No puedes responder temas
  • No puedes subir archivos adjuntos
  • No puedes editar tus mensajes
  •