SubAdictos Facebook SubAdictos   Twitter SubAdictos  

Retroceder   SubAdictos > - ZONA DE CINE - > CINE CON SUBTÍTULOS > Drama (+)
Portal Subadictos
Índice del Foro

Respuesta
 
Crear Nuevo Tema Herramientas Desplegado
Antiguo 02-04-2012, 12:09   #1
Still-Free!
Peligrosamente Adicto
 
Avatar de Still-Free!
 
Fecha de Ingreso: 28-03-2010
Ubicación: Santiago.
Edad: 25

Mensajes: 439
Gracias: 66
Agradecimientos: 194
Chile
Hombre
Estados Unidos Too Young to Die? (1990) [Xam/VeraCD]

Too Young to Die? (1990)
Sinopsis:
Amanda Sue Bradley (Juliette Lewis) es una adolescente de apenas 15 años con un pasado terrible: violada por su padrastro y abandonada por su madre, se casó cuando era un cría, pero su marido la ha dejado. Sola, sin dinero, conoce a Billy (Brad Pitt), un joven atractivo pero que la lleva a una vida de drogas y prostitución...
Datos Película:
Director: Robert Markowitz.
Reparto: Juliette Lewis, Brad Pitt, Michael Tucker, Alan Fudge, Emily Longstreth, Laurie O'Brien, Yvette Heyden, Tom Everett, Michael O'Keefe.
País: Estados Unidos.
Género: Drama, Crimen.
Duración: 92 Minutos.
Más Detalles en Film Affinity
Más Detalles en iMDB
E-links:
Bajar Película
Torrent / Magnet:
Bajar Película
Subtítulos:
Bajar Subtítulos en Español
Descargas Directas:

Rapidshare (Versión VeraCD)
Código:
http://rapidshare.com/files/428656552/SharingW.org_To_Young_To_Die_1990_DVDRip_XviD_VeraCD.part1.rar 
http://rapidshare.com/files/428656032/SharingW.org_To_Young_To_Die_1990_DVDRip_XviD_VeraCD.part2.rar
______________________________________________________

Última edición por Still-Free!; 02-04-2012 a las 12:18
Still-Free! está desconectado  
Los siguentes 3 usuarios agradecen el post de Still-Free!:
Antiguo 02-04-2012, 12:14   #2
Still-Free!
Peligrosamente Adicto
 
Avatar de Still-Free!
 
Fecha de Ingreso: 28-03-2010
Ubicación: Santiago.
Edad: 25

Mensajes: 439
Gracias: 66
Agradecimientos: 194
Chile
Hombre
Predeterminado

NFO:

Too.Young.to.Die.1990.FS.DVDRip.XviD-XaM


Spoiler:
Código:
Filesize.....: 700 MB (or 716,866 KB or 734,070,784 bytes)
Runtime......: 01:28:10 (132,257 fr)
Video Codec..: XviD
Video Bitrate: 986 kb/s
Audio Codec..: 0x0055(MP3) ID'd as MPEG-1 Layer 3
Audio Bitrate: 115 kb/s (57/ch, stereo) VBR LAME3.90
Frame Size...: 512x384 (1.33:1) [=4:3] 25.000



To Young To Die 1990 DVDRip XviD VeraCD

Spoiler:
Código:
Format                           : DivX
Format/Info                      : Hack of AVI
File size                        : 699 MiB
Duration                         : 1h 28mn
Overall bit rate                 : 1 109 Kbps

Video
ID                               : 0
Format                           : MPEG-4 Visual
Format profile                   : Advanced Simple@L5
Format settings, BVOP            : Yes
Format settings, QPel            : No
Format settings, GMC             : No warppoints
Format settings, Matrix          : Custom
Muxing mode                      : Packed bitstream
Codec ID                         : DX50
Codec ID/Hint                    : DivX 5
Duration                         : 1h 28mn
Bit rate                         : 972 Kbps
Width                            : 640 pixels
Height                           : 480 pixels
Display aspect ratio             : 4:3
Frame rate                       : 25.000 fps
Color space                      : YUV
Chroma subsampling               : 4:2:0
Bit depth                        : 8 bits
Scan type                        : Progressive
Bits/(Pixel*Frame)               : 0.126
Stream size                      : 613 MiB (88%)
Title                            : Video
Writing library                  : XviD 1.2.1 (UTC 2008-12-04)

Audio
ID                               : 1
Format                           : MPEG Audio
Format version                   : Version 1
Format profile                   : Layer 3
Mode                             : Joint stereo
Mode extension                   : MS Stereo
Codec ID                         : 55
Codec ID/Hint                    : MP3
Duration                         : 1h 28mn
Bit rate mode                    : Constant
Bit rate                         : 128 Kbps
Channel(s)                       : 2 channels
Sampling rate                    : 48.0 KHz
Stream size                      : 80.7 MiB (12%)
Alignment                        : Split accross interleaves
Interleave, duration             : 40 ms (1.00 video frame)
Interleave, preload duration     : 500 ms
Title                            : Audio
Writing library                  : LAME3.98r
Encoding settings                : -m j -V 4 -q 7 -lowpass 17 -b 128

Capturas:


Spoiler:

Última edición por Still-Free!; 02-04-2012 a las 12:19
Still-Free! está desconectado   Responder Citando
Antiguo 02-04-2012, 13:34   #3
McalvinoV
Super Moderador
 
Avatar de McalvinoV
 
Fecha de Ingreso: 20-02-2010
Ubicación: Panamanicomio
Edad: 37

Mensajes: 74.075
Gracias: 5.046
Agradecimientos: 34.140
Panama
Hombre
Predeterminado

Gracias, no la conocia y no la tenia ni en la filmo de Brad Pitt... en un rato la agrego

saludos
______________________________________________________
McalvinoV está desconectado   Responder Citando
Antiguo 02-04-2012, 22:09   #4
Simonrag
Adicto Sin Retorno
 
Avatar de Simonrag
 
Fecha de Ingreso: 05-02-2010

Mensajes: 14.118
Gracias: 875
Agradecimientos: 3.718
Chile
Hombre
Predeterminado

genial, no la he visto... gracias!!!!
______________________________________________________

Colgamos el teclado y el mouse por un internet libre.. únete.

(Deja las Gracias )
Simonrag está desconectado   Responder Citando
Antiguo 03-04-2012, 01:22   #5
Prepuxio
Medio Adicto
 
Avatar de Prepuxio
 
Fecha de Ingreso: 31-03-2012

Mensajes: 80
Gracias: 14
Agradecimientos: 0
Mexico
Mujer
Predeterminado

Demonios, el torrent no baja queda en 97% que maldad
Prepuxio está desconectado   Responder Citando
Antiguo 03-04-2012, 23:06   #6
Simonrag
Adicto Sin Retorno
 
Avatar de Simonrag
 
Fecha de Ingreso: 05-02-2010

Mensajes: 14.118
Gracias: 875
Agradecimientos: 3.718
Chile
Hombre
Predeterminado

Que mal aunque dice tener 1 semilla, yo la dejaría un par de días por si baja. Suerte con eso.
Simonrag está desconectado   Responder Citando
Respuesta


Usuarios Activos Viendo Actualmente este Tema: 1 (0 miembros y 1 visitantes)
 
Herramientas
Desplegado




La franja horaria es GMT -3. Ahora son las 21:02.


Powered by : vBulletin® Versión 3.8.4
Copyright ©2000 - 2014, Jelsoft Enterprises Ltd.
vBulletin - vBulletin en español