Resultados 1 al 3 de 3

Tema: Ha-Sippur Shel Yossi (2012) [HORiZON-ArtSubs]

  1. #1
    Adicto Sin Retorno Avatar de pepe2982
    Fecha de ingreso
    08-07-2010
    Mensajes
    34,713
    Agradecimientos: 82617

    Israel Ha-Sippur Shel Yossi (2012) [HORiZON-ArtSubs]

    Ha-Sippur Shel Yossi (2012)
    Sinopsis:
    Yossi es un cardiólogo gay que vive una existencia solitaria en Tel Aviv. Incapaz de romper los muros y las defensas construidas en torno a él desde la muerte de su compañero, el hombre se refugia en el trabajo, la pornografía y sitios de Internet para buscar sexo, para escapar de sus angustias personales. Un día su mundo se sacude cuando la madre de su compañero entra en su consultorio. Este breve pero emocionalmente cargado encuentro lo afecta lo suficiente como para hacerlo irse de Tel Aviv. En las desoladas carreteras del sur de Israel, tras encontrarse con un grupo de jóvenes soldados, se despierta en Yossi un deseo de salir de su marasmo emocional y rehacer su vida. Diez años después de "Yossi y Jagger", la trágica historia de amor de dos oficiales de las FDI que prestaban servicio en el Líbano, el director Eytan Fox vuelve a contar la historia del protagonista de esa película.
    Datos Película:
    Director: Eytan Fox.
    Reparto: Lior Ashkenazi, Ohad Knoller, Orly Silbersatz Banai, Oz Zehavi.
    País: Israel.
    Género: Drama, Secuela.
    Duración: 81 Minutos.
    Más Detalles en Film Affinity
     
    E-links:
    Bajar Película
    Torrent / Magnet:
    Bajar Película
    Subtítulos:
    Bajar Subtítulos en Español
    Poster:
    Última edición por pepe2982; 03-01-2013 a las 23:43:14

  2. Los siguientes 10 usuarios agradecen el post de pepe2982:


  3. #2
    Adicto Sin Retorno Avatar de pepe2982
    Fecha de ingreso
    08-07-2010
    Mensajes
    34,713
    Agradecimientos: 82617

    Predeterminado

    Info:
    Spoiler:
    SPOILER:
    Complete name : Yossi.2012.DVDRip.AC3.HORiZON-ArtSubs.avi
    Format : AVI
    Format/Info : Audio Video Interleave
    File size : 1.37 GiB
    Duration : 1h 21mn
    Overall bit rate : 2 407 Kbps
    Writing application : FairUse Wizard - http://fairusewizard.com
    Writing library : The best and REALLY easy backup tool

    Video
    ID : 0
    Format : MPEG-4 Visual
    Format profile : Advanced [email protected]
    Format settings, BVOP : 1
    Format settings, QPel : No
    Format settings, GMC : No warppoints
    Format settings, Matrix : Default (MPEG)
    Muxing mode : Packed bitstream
    Codec ID : XVID
    Codec ID/Hint : XviD
    Duration : 1h 21mn
    Bit rate : 1 950 Kbps
    Width : 688 pixels
    Height : 384 pixels
    Display aspect ratio : 16:9
    Frame rate : 25.000 fps
    Color space : YUV
    Chroma subsampling : 4:2:0
    Bit depth : 8 bits
    Scan type : Progressive
    Compression mode : Lossy
    Bits/(Pixel*Frame) : 0.295
    Stream size : 1.11 GiB (81%)
    Writing library : XviD 1.2.0.dev47 (UTC 2006-11-01)

    Audio
    ID : 1
    Format : AC-3
    Format/Info : Audio Coding 3
    Mode extension : CM (complete main)
    Codec ID : 2000
    Duration : 1h 21mn
    Bit rate mode : Constant
    Bit rate : 448 Kbps
    Channel(s) : 6 channels
    Channel positions : Front: L C R, Side: L R, LFE
    Sampling rate : 48.0 KHz
    Bit depth : 16 bits
    Compression mode : Lossy
    Stream size : 260 MiB (19%)
    Alignment : Split accross interleaves
    Interleave, duration : 40 ms (1.00 video frame)
    Interleave, preload duration : 500 ms

    Capturas:
    Spoiler:
    SPOILER:










    1 win & 1 nomination


    No hay DD. por el momento.

  4. Los siguientes 2 usuarios agradecen el post de pepe2982:


  5. #3
    Subtitulador Avatar de diodoro
    Fecha de ingreso
    20-11-2011
    Ubicación
    Merlo
    Edad
    77
    Mensajes
    4,507
    Agradecimientos: 1294


    Seguir a diodoro en Twitter

    Predeterminado

    Hola amigos. Hermosa película sin estupideces. Simple y compleja a la vez. Apunta a las emociones humanas que vos yo o cualquiera puede sentir. Muy buen cine de temática gay para todo el mundo. Gracias Pepe.
    Todo tendrá su precio porque nada vale. Oscar Wilde.
    __________________________________________________ _______________________
    Subtitulos que necesitan corrección
    http://www.subadictos.net/foros/show...ulos+necesitan

  6. Los siguientes usuarios agradecen a diodoro por este tema:


Información de tema

Usuarios viendo este tema

Actualmente hay 1 usuarios viendo este tema. (0 miembros y 1 visitantes)

Temas similares

  1. Io e te / Me and You (2012) [HORiZON-ArtSubs]
    Por pepe2982 en el foro Drama (+)
    Respuestas: 13
    Último mensaje: 27-02-2018, 20:21:09
  2. Augustine (2012) [HORiZON-ArtSubs]
    Por pepe2982 en el foro Cine de Época (+)
    Respuestas: 17
    Último mensaje: 19-09-2014, 19:51:39
  3. No (2012) [HORiZON-ArtSubs]
    Por pepe2982 en el foro Drama (+)
    Respuestas: 65
    Último mensaje: 03-09-2013, 22:01:23
  4. De rouille et d'os (2012) [HORiZON-ArtSubs]
    Por pepe2982 en el foro Romance (+)
    Respuestas: 30
    Último mensaje: 09-02-2013, 16:07:07
  5. La vie d'une autre (2012) [HORiZON-ArtSubs]
    Por pepe2982 en el foro Drama (+)
    Respuestas: 15
    Último mensaje: 12-09-2012, 22:04:07

Miembros que han leído este tema: 7

Permisos de publicación

  • No puedes crear nuevos temas
  • No puedes responder temas
  • No puedes subir archivos adjuntos
  • No puedes editar tus mensajes
  •