Resultados 1 al 6 de 6

Tema: Brawler (2011) [Juggs]

  1. #1
    Administrador Avatar de McalvinoV
    Fecha de ingreso
    20-02-2010
    Ubicación
    Panamanicomio
    Edad
    42
    Mensajes
    134,188
    Agradecimientos: 131809

    Estados Unidos Brawler (2011) [Juggs]

    Brawler (2011)
    Sinopsis:
    Después de una traición devastadora, dos hermanos vuelven a la escena club de la pelea subterránea en Nueva Orleans y se preparan para la batalla a la muerte.
    Datos Película:
    Director: Chris Sivertson.
    Reparto: Nathan Grubbs, Marc Senter and Bryan Batt.
    País: Estados Unidos.
    Género: Acción, Drama.
    Duración: 84 Minutos.
     
    E-links:
    No Disponible
    Torrent / Magnet:
    Bajar Película
    Subtítulos:
    No Disponible
    Descargas Directas:

    Mega - Unir con HJ-Split
    https://mega.co.nz/#!A4dlkJqQ!cOXJIGl8own7xYpG6eQ3Qhdt8GkeCLbugpnS6c3aE7Q
    https://mega.co.nz/#!s9UxBIQK!EmuNeHeKwY8Fq-bCNkM8yzRZ9sgiWLK4BrnWu3W604k
    Última edición por luisIreneo; 09-11-2013 a las 14:33:10 Razón: Agregada DD's


  2. Los siguientes 2 usuarios agradecen el post de McalvinoV:


  3. #2
    Administrador Avatar de McalvinoV
    Fecha de ingreso
    20-02-2010
    Ubicación
    Panamanicomio
    Edad
    42
    Mensajes
    134,188
    Agradecimientos: 131809

    Predeterminado

    Source : OldsMan(Thanks)
     
    http://www.imdb.com/title/tt1662295/
    
    Format                                   : AVI
    Format/Info                              : Audio Video Interleave
    File size                                : 697 MiB
    Duration                                 : 1h 23mn
    Overall bit rate                         : 1 163 Kbps
    Writing library                          : VirtualDub build 32842/release
    
    Video
    ID                                       : 0
    Format                                   : MPEG-4 Visual
    Format profile                           : Advanced Simple@L5
    Format settings, BVOP                    : 2
    Format settings, QPel                    : No
    Format settings, GMC                     : No warppoints
    Format settings, Matrix                  : Default (H.263)
    Muxing mode                              : Packed bitstream
    Codec ID                                 : XVID
    Codec ID/Hint                            : XviD
    Duration                                 : 1h 23mn
    Bit rate                                 : 1 026 Kbps
    Width                                    : 640 pixels
    Height                                   : 272 pixels
    Display aspect ratio                     : 2.35:1
    Frame rate                               : 23.976 fps
    Color space                              : YUV
    Chroma subsampling                       : 4:2:0
    Bit depth                                : 8 bits
    Scan type                                : Progressive
    Compression mode                         : Lossy
    Bits/(Pixel*Frame)                       : 0.246
    Stream size                              : 615 MiB (88%)
    Writing library                          : XviD 1.2.1 (UTC 2008-12-04)
    
    Audio
    ID                                       : 1
    Format                                   : MPEG Audio
    Format version                           : Version 1
    Format profile                           : Layer 3
    Codec ID                                 : 55
    Codec ID/Hint                            : MP3
    Duration                                 : 1h 23mn
    Bit rate mode                            : Constant
    Bit rate                                 : 128 Kbps
    Channel(s)                               : 2 channels
    Sampling rate                            : 44.1 KHz
    Compression mode                         : Lossy
    Stream size                              : 76.7 MiB (11%)
    Alignment                                : Split accross interleaves
    Interleave, duration                     : 42 ms (1.00 video frame)
    Interleave, preload duration             : 500 ms
    Writing library                          : LAME3.99r
    Encoding settings                        : -m s -V 4 -q 3 -lowpass 17 -b 128
    
    Plot
    After a devastating betrayal, two brothers return to the underground fight club scene in New Orleans and prepare to battle to the death. 
    
     
    http://img594.imageshack.us/img594/2023/73s.png 
    http://img837.imageshack.us/img837/2494/zzs.png
    http://img196.imageshack.us/img196/4489/dxgt.png
    Última edición por McalvinoV; 02-07-2013 a las 15:38:14

  4. #3
    Moderador Avatar de the darkness
    Fecha de ingreso
    24-04-2013
    Ubicación
    Somewhere I Belong
    Mensajes
    28,967
    Agradecimientos: 63375

    Predeterminado

    Eliminadas DD offline.

    Va a recuperación.

  5. #4
    Amigos de SubAdictos Avatar de luisIreneo
    Fecha de ingreso
    02-01-2013
    Ubicación
    Córdoba
    Mensajes
    17,739
    Agradecimientos: 34769

    Predeterminado

    Descargada del torrent de la ficha. Agrego DD's

    Muevo a Acción sin subtítulos

    Saludos!

  6. #5
    Administrador Avatar de McalvinoV
    Fecha de ingreso
    20-02-2010
    Ubicación
    Panamanicomio
    Edad
    42
    Mensajes
    134,188
    Agradecimientos: 131809

    Predeterminado

    muchas Gracias Luis

  7. #6
    Amigos de SubAdictos Avatar de luisIreneo
    Fecha de ingreso
    02-01-2013
    Ubicación
    Córdoba
    Mensajes
    17,739
    Agradecimientos: 34769

    Predeterminado

    No hay porqué Mc .

    Saludos!
    Última edición por luisIreneo; 09-11-2013 a las 15:38:50

Información de tema

Usuarios viendo este tema

Actualmente hay 1 usuarios viendo este tema. (0 miembros y 1 visitantes)

Temas similares

  1. This Is the End (2013) [juggs]
    Por pepe2982 en el foro Comedia (+)
    Respuestas: 31
    Último mensaje: 03-12-2013, 03:19:01
  2. Barrio Brawler / American Brawler (2013) [iFPD] 720p
    Por the darkness en el foro Acción HD
    Respuestas: 1
    Último mensaje: 08-09-2013, 09:11:37
  3. Barrio Brawler / American Brawler (2013) [iFPD]
    Por the darkness en el foro Acción
    Respuestas: 1
    Último mensaje: 08-09-2013, 08:57:10
  4. The Dynamiter (2011) [juggs]
    Por el profundo en el foro Drama
    Respuestas: 1
    Último mensaje: 21-04-2013, 13:39:23
  5. Overtime (2011) [juggs]
    Por el profundo en el foro Comedia
    Respuestas: 1
    Último mensaje: 14-02-2013, 20:26:00

Miembros que han leído este tema: 2

Permisos de publicación

  • No puedes crear nuevos temas
  • No puedes responder temas
  • No puedes subir archivos adjuntos
  • No puedes editar tus mensajes
  •