Resultados 1 al 10 de 10

Tema: Mesto Vstrechi Izmenit Nelzya / Can't Change the Meeting Place Temporada Única (1979) (+)

  1. #1
    Administrador Avatar de maximogorki
    Fecha de ingreso
    25-01-2010
    Ubicación
    Lejos pero no Tanto.
    Edad
    56
    Mensajes
    18,261
    Agradecimientos: 3639


    Seguir a maximogorki en Twitter Agrega a maximogorki en Facebook

    URSS Mesto Vstrechi Izmenit Nelzya / Can't Change the Meeting Place Temporada Única (1979) (+)

    Mesto Vstrechi Izmenit Nelzya / Can't Change the Meeting Place Temporada Única (1979)
    Sinopsis:
    Sharapov, un joven oficial del Ejército Rojo desmovilizado al acabar la SGM, comienza a trabajar para la MUR [Moskovskiy Ugolovny Rozysk - Policía Metropolitana de Moscú]. Aquí encuentra a un compañero con experiencia, Zhiglov, que le ayuda a familiarizarse con su nuevo trabajo. La MUR está investigando una organización criminal llamada "Gato Negro". Sharapov se infiltra en esta organización.
    Ficha Técnica:Elenco:

    Capítulos: 5
    Género: Acción / Crimen / Misterio..
    Duración: 76 Minutos.
    Director: Stanislav Govorukhin.
    Estudio: Twister

    Vladimir Vysotsky
    Vladimir Konkin
    Zinovy Gerdt
    Armen Dzhigarkhanyan

    Más Información:
    •  
    E-Links:Torrents / Magnets:Subtítulos:
    1. Capítulo 1
    2. Capítulo 2
    3. Capítulo 3
    4. Capítulo 4
    5. Capítulo 5

    1. Temporada Completa
    1. Capítulo 1
    2. Capítulo 2
    3. Capítulo 3
    4. Capítulo 4
    5. Capítulo 5

  2. Los siguientes 31 usuarios agradecen el post de maximogorki:


  3. #2
    Administrador Avatar de maximogorki
    Fecha de ingreso
    25-01-2010
    Ubicación
    Lejos pero no Tanto.
    Edad
    56
    Mensajes
    18,261
    Agradecimientos: 3639


    Seguir a maximogorki en Twitter Agrega a maximogorki en Facebook

    Predeterminado

    Publicada en Rebldemule.
    Traducción a cargo de Galina.

    info + capturas versión elink
    Spoiler:
    SPOILER:
    General
    Complete name : F:\Mesto.Vstrechi.Izmenit.Nelzya.1.of.5.(Rus).Aist .&.ShareReactor.ru.avi
    Format : AVI
    Format/Info : Audio Video Interleave
    File size : 700 MiB
    Duration : 1h 6mn
    Overall bit rate : 1 466 Kbps
    Writing application : VirtualDubMod 1.5.10.2 (build 2540/release)
    Writing library : VirtualDubMod build 2540/release

    Video
    ID : 0
    Format : MPEG-4 Visual
    Format profile : Advanced Simple@L5
    Format settings, BVOP : 2
    Format settings, QPel : No
    Format settings, GMC : No warppoints
    Format settings, Matrix : Default (H.263)
    Muxing mode : Packed bitstream
    Codec ID : XVID
    Codec ID/Hint : XviD
    Duration : 1h 6mn
    Bit rate : 1 328 Kbps
    Width : 576 pixels
    Height : 432 pixels
    Display aspect ratio : 4:3
    Frame rate : 25.000 fps
    Color space : YUV
    Chroma subsampling : 4:2:0
    Bit depth : 8 bits
    Scan type : Progressive
    Compression mode : Lossy
    Bits/(Pixel*Frame) : 0.213
    Stream size : 634 MiB (91%)
    Writing library : XviD 1.2.0SMP (UTC 2006-01-08)

    Audio
    ID : 1
    Format : MPEG Audio
    Format version : Version 1
    Format profile : Layer 3
    Mode : Joint stereo
    Mode extension : MS Stereo
    Codec ID : 55
    Codec ID/Hint : MP3
    Duration : 1h 6mn
    Bit rate mode : Constant
    Bit rate : 128 Kbps
    Channel(s) : 2 channels
    Sampling rate : 48.0 KHz
    Compression mode : Lossy
    Stream size : 61.1 MiB (9%)
    Alignment : Aligned on interleaves
    Interleave, duration : 40 ms (1.00 video frame)
    Interleave, preload duration : 504 ms

    Spoiler:
    SPOILER:



    info + capturas versión torrent
    Spoiler:
    SPOILER:
    Формат : MPEG-4
    Профиль формата : Base Media
    Идентификатор кодека : isom
    Размер файла : 1,35 Гбайт
    Продолжительность : 1 ч. 6 м.
    Общий поток : 2886 Кбит/сек
    Программа кодирования : Lavf53.6.0


    Видео
    Идентификатор : 1
    Формат : AVC
    Формат/Информация : Advanced Video Codec
    Профиль формата : High@L4.1
    Параметр CABAC формата : Да
    Параметр ReFrames формата : 6 кадров
    Идентификатор кодека : avc1
    Идентификатор кодека/Информация : Advanced Video Coding
    Продолжительность : 1 ч. 6 м.
    Битрейт : 2500 Кбит/сек
    Ширина : 768 пикселей
    Высота : 576 пикселей
    Соотношение сторон : 4:3
    Режим частоты кадров : Постоянный
    Частота кадров : 25,000 кадров/сек
    Цветовое пространство : YUV
    Субдискретизация насыщенности : 4:2:0
    Битовая глубина : 8 бит
    Тип развёртки : Прогрессивная
    Бит/(Пиксели*Кадры) : 0.226
    Размер потока : 1,17 Гбайт (87%)
    Библиотека кодирования : x264 core 116 r2019 9cc407d
    Настройки программы : cabac=1 / ref=6 / deblock=1:0:0 / analyse=0x3:0x133 / me=umh / subme=7 / psy=1 / psy_rd=1.00:0.00 / mixed_ref=1 / me_range=16 / chroma_me=1 / trellis=2 / 8x8dct=1 / cqm=0 / deadzone=21,11 / fast_pskip=0 / chroma_qp_offset=-2 / threads=3 / sliced_threads=0 / nr=0 / decimate=1 / interlaced=0 / bluray_compat=0 / constrained_intra=0 / bframes=3 / b_pyramid=2 / b_adapt=2 / b_bias=0 / direct=3 / weightb=1 / open_gop=0 / weightp=2 / keyint=250 / keyint_min=25 / scenecut=40 / intra_refresh=0 / rc_lookahead=200 / rc=2pass / mbtree=1 / bitrate=2500 / ratetol=1.0 / qcomp=0.60 / qpmin=0 / qpmax=69 / qpstep=4 / cplxblur=20.0 / qblur=0.5 / ip_ratio=1.40 / aq=1:1.00

    Аудио
    Идентификатор : 2
    Формат : AAC
    Формат/Информация : Advanced Audio Codec
    Профиль формата : LC
    Идентификатор кодека : 40
    Продолжительность : 1 ч. 6 м.
    Вид битрейта : Постоянный
    Битрейт : 384 Кбит/сек
    Каналы : 6 каналов
    Расположение каналов : Front: L C R, Side: L R, LFE
    Частота : 48,0 КГц
    Метод сжатия : С потерями
    Размер потока : 182 Мбайт (13%)

    Spoiler:
    SPOILER:


  4. Los siguientes 2 usuarios agradecen el post de maximogorki:


  5. #3
    Medio Adicto Avatar de karina62
    Fecha de ingreso
    29-11-2012
    Ubicación
    bilbao
    Mensajes
    43
    Agradecimientos: 5

    Predeterminado

    que interesante!!!

  6. Los siguientes usuarios agradecen a karina62 por este tema:


  7. #4
    Peligrosamente Adicto Avatar de AyalaMoriel
    Fecha de ingreso
    17-06-2011
    Mensajes
    410
    Agradecimientos: 209

    Predeterminado

    Muchas gracias Máximo Gorki

  8. #5
    Adicto Sin Retorno Avatar de mezcal150
    Fecha de ingreso
    18-03-2010
    Ubicación
    Argentina
    Edad
    75
    Mensajes
    809
    Agradecimientos: 321

    Predeterminado

    No logro que lea el sub.3.Lo baje de subdix: La palabra unicode, explicaría algo ?

    Mesto_vstrechi_izmenit_nelzja_3_1979_RUS_unicode

  9. #6
    Amigos de SubAdictos Avatar de Emolo
    Fecha de ingreso
    23-04-2010
    Mensajes
    1,697
    Agradecimientos: 5965

    Predeterminado

    Muchísimas gracias maximogorki , cuando haga espacio la pincho. Saludos
    Última edición por Emolo; 09-09-2014 a las 18:53:27

  10. Los siguientes usuarios agradecen a Emolo por este tema:


  11. #7
    Adicto Sin Retorno Avatar de Ona
    Fecha de ingreso
    08-05-2014
    Mensajes
    8,515
    Agradecimientos: 10140

    Predeterminado

    Me interesa... tiene una pinta estupenda... Muchas gracias por traerla maximogorki... y muchas gracias a Galina por esos subtítulos.

  12. Los siguientes usuarios agradecen a Ona por este tema:


  13. #8
    Adicto Sin Retorno Avatar de Camiseta10
    Fecha de ingreso
    12-05-2010
    Mensajes
    1,516
    Agradecimientos: 226

    Predeterminado

    Muchas gracias!

  14. #9
    Adicto Sin Retorno Avatar de viejtigr51
    Fecha de ingreso
    01-09-2010
    Ubicación
    Rosario, a metros del Parana.
    Mensajes
    10,567
    Agradecimientos: 2365

    Predeterminado

    Muchas gracias por todo.

  15. #10
    Peligrosamente Adicto Avatar de xouba
    Fecha de ingreso
    06-09-2013
    Ubicación
    Galicia
    Mensajes
    339
    Agradecimientos: 775

    Predeterminado

    La acabé de ver hace unos días, interesante, me ha gustado bastante

  16. Los siguientes usuarios agradecen a xouba por este tema:


Información de tema

Usuarios viendo este tema

Actualmente hay 1 usuarios viendo este tema. (0 miembros y 1 visitantes)

Temas similares

  1. Paranoia / A Quiet Place to Kill / A Beautiful Place to Kill (1970)
    Por McalvinoV en el foro Thriller / Crimen (+)
    Respuestas: 7
    Último mensaje: 23-06-2016, 12:31:15
  2. Mesto na zemle / A Place on Earth (2001)
    Por pepe2982 en el foro Drama (+)
    Respuestas: 10
    Último mensaje: 23-07-2015, 00:23:54
  3. Respuestas: 27
    Último mensaje: 03-04-2014, 12:58:30
  4. Sveto mesto / A Holy Place (1990) [YUF]
    Por McalvinoV en el foro Terror / Horror (+)
    Respuestas: 1
    Último mensaje: 19-08-2012, 13:59:54
  5. Le code a changé / Change of Plans (2009) [FRAGMENT]
    Por Neokyo en el foro Comedia (+)
    Respuestas: 6
    Último mensaje: 26-06-2011, 21:59:02

Miembros que han leído este tema: 23

Permisos de publicación

  • No puedes crear nuevos temas
  • No puedes responder temas
  • No puedes subir archivos adjuntos
  • No puedes editar tus mensajes
  •