Resultados 1 al 4 de 4

Tema: Boker Tov Adon Fidelman / Restoration (2011)

  1. #1
    Amigos de SubAdictos Avatar de luisIreneo
    Fecha de ingreso
    02-01-2013
    Ubicación
    Córdoba
    Mensajes
    17,741
    Agradecimientos: 35035

    Israel Boker Tov Adon Fidelman / Restoration (2011)

    Boker Tov Adon Fidelman / Restoration (2011)
    Sinopsis:
    En el antiguo barrio industrial de Tel Aviv, el maestro carpintero y restaurador Yakov Fidelman experimenta un cambio en su vida con la llegada a su viejo taller de Anton, un joven y excéntrico vagabundo que se gana la vida como jornalero y que está buscando una ocupación. Anton se convierte en el aprendiz del anciano Fidelman a cambio de un plato de comida y un exiguo salario. Al poco tiempo, fallece el socio de toda la vida de Fidelman y le deja un doble problema: el negocio atraviesa dificultades económicas muy serias y su difunto socio le ha cedido su cincuenta por ciento del taller a Noah, el hijo de Fidelman, que se ha enemistado con la familia. Noah es un joven abogado ambicioso que apremia a su padre para que se jubile y dé su visto bueno a la construcción de un bloque de pisos en el solar que ocupa el negocio. Pero Fidelman, que se niega a abandonar el oficio al que ha dedicado su vida, encontrará un inesperado aliado en su nuevo aprendiz. Anton trabajará a partir de entonces codo con codo con su patrón para preservar un modo de vida que está al borde de la extinción. Fidelman, que ha fracasado como padre de Noah, va asumiendo paulatinamente ese papel con el joven aprendiz. (Fuente: divxclasico.com).
    Datos Película:
    Director: Yossi Madmony.
    Reparto: Sasson Gabay, Henry David, Nevo Kimchi, Sarah Adler, Ruth Borenstein.
    País: Israel.
    Género: Drama.
    Duración: 105 Minutos.
    Más Detalles en Film Affinity
     
    E-links:
    Bajar Película
    Torrent / Magnet:
    No Disponible
    Subtítulos:
    Bajar Subtítulos en Español
    Descargas Directas:

    Mega
    https://mega.co.nz/#!xkwR2RBB!8EmC6l8loGazAaw1Skr8Rzk-JKGuIU42v8A06EQDOv0
    Archivos adjuntados Archivos adjuntados
    Última edición por luisIreneo; 18-08-2014 a las 16:46:19

  2. Los siguientes 8 usuarios agradecen el post de luisIreneo:


  3. #2
    Amigos de SubAdictos Avatar de luisIreneo
    Fecha de ingreso
    02-01-2013
    Ubicación
    Córdoba
    Mensajes
    17,741
    Agradecimientos: 35035

    Predeterminado

    Detalle técnico del ripeo
    Spoiler:
    SPOILER:
    Format : AVI
    Format/Info : Audio Video Interleave
    File size : 1.46 GiB
    Duration : 1h 40mn
    Overall bit rate : 2 083 Kbps
    Writing application : VirtualDubMod 1.5.10.3 | www.virtualdub-fr.org || (build 2550/release)
    Writing library : VirtualDubMod build 2550/release

    Video
    ID : 0
    Format : MPEG-4 Visual
    Format profile : Advanced [email protected]
    Format settings, BVOP : 1
    Format settings, QPel : No
    Format settings, GMC : No warppoints
    Format settings, Matrix : Default (MPEG)
    Codec ID : XVID
    Codec ID/Hint : XviD
    Duration : 1h 40mn
    Bit rate : 1 625 Kbps
    Width : 720 pixels
    Height : 400 pixels
    Display aspect ratio : 16:9
    Frame rate : 25.000 fps
    Color space : YUV
    Chroma subsampling : 4:2:0
    Bit depth : 8 bits
    Scan type : Progressive
    Compression mode : Lossy
    Bits/(Pixel*Frame) : 0.226
    Stream size : 1.14 GiB (78%)
    Writing library : XviD 1.2.1 (UTC 2008-12-04)

    Audio
    ID : 1
    Format : AC-3
    Format/Info : Audio Coding 3
    Mode extension : CM (complete main)
    Codec ID : 2000
    Duration : 1h 40mn
    Bit rate mode : Constant
    Bit rate : 448 Kbps
    Channel(s) : 6 channels
    Channel positions : Front: L C R, Side: L R, LFE
    Sampling rate : 48.0 KHz
    Bit depth : 16 bits
    Compression mode : Lossy
    Stream size : 322 MiB (22%)
    Alignment : Split accross interleaves
    Interleave, duration : 40 ms (1.00 video frame)
    Interleave, preload duration : 500 ms


    Capturas
    Spoiler:
    SPOILER:








    6 wins & 14 nominations.

  4. #3
    Amigos de SubAdictos Avatar de jmanuellopez76
    Fecha de ingreso
    05-02-2011
    Ubicación
    Bahia Blanca, la capital del Basquetbol en la Argentina!!
    Edad
    44
    Mensajes
    25,886
    Agradecimientos: 37552

    Predeterminado

    Gracias por el aporte!!!... La pelicula se ve muy interesante con un tema real de la vida cotidiana, como siempre comento estas son joyitas del septimo arte que no pertenecen a un cine comercial y que pasan directo al video o a internet.

  5. #4
    Amigos de SubAdictos Avatar de luisIreneo
    Fecha de ingreso
    02-01-2013
    Ubicación
    Córdoba
    Mensajes
    17,741
    Agradecimientos: 35035

    Predeterminado

    Cita Iniciado por jmanuellopez76 Ver mensaje
    Gracias por el aporte!!!... La pelicula se ve muy interesante con un tema real de la vida cotidiana, como siempre comento estas son joyitas del septimo arte que no pertenecen a un cine comercial y que pasan directo al video o a internet.
    Gracias jmanuel por tu comentario y coincido contigo, no son fáciles de encontrar torrent ya que al ser un cine "no comercial" generalmente se queda sin semillas por suerte esta mega que por ahora carga y descarga bastante rápido y nos facilita la tarea a todos. Espero la disfrutes.

    Un abrazo de gol, de esos que van al ángulo!!

Información de tema

Usuarios viendo este tema

Actualmente hay 1 usuarios viendo este tema. (0 miembros y 1 visitantes)

Temas similares

  1. Restoration (1995)
    Por McalvinoV en el foro Cine de Época (+)
    Respuestas: 3
    Último mensaje: 10-01-2018, 21:08:21

Miembros que han leído este tema: 10

Permisos de publicación

  • No puedes crear nuevos temas
  • No puedes responder temas
  • No puedes subir archivos adjuntos
  • No puedes editar tus mensajes
  •