Resultados 1 al 5 de 5

Tema: Hahithalfut / The Exchange (2011) [HORiZON ArtSubs-Sonata Premiere]

  1. #1
    Amigos de SubAdictos Avatar de luisIreneo
    Fecha de ingreso
    02-01-2013
    Ubicación
    Córdoba
    Mensajes
    17,741
    Agradecimientos: 35035

    Israel Hahithalfut / The Exchange (2011) [HORiZON ArtSubs-Sonata Premiere]

    Hahithalfut / The Exchange (2011)
    Sinopsis:
    Un hombre regresa a casa a una hora en la que nunca ha estado ahí antes. Cuando la luz alumbra de una manera diferente, cuando el zumbido del refrigerador es el único sonido. Un hombre regresa a casa a una hora en que nunca ha estado ahí antes y durante un momento le parece que ha entrado en la casa de un extraño, vacía y silenciosa a mitad del día. Un hombre de familia se obsesiona viendo su propia vida fuera de contexto.
    Datos Película:
    Director: Eran Kolirin.
    Reparto: Rotem Keinan, Sharon Tal, Dov Navon, Shirili Deshe.
    País: Israel.
    Género: Drama.
    Duración: 94 Minutos.
    Más Detalles en Film Affinity
     
    E-links:
    Bajar Película HORiZON ArtSubs
    Torrent / Magnet:
    Bajar Película HORiZON ArtSubs
    Bajar Película Sonata Premiere
    Subtítulos:
    Bajar Subtítulos en Español
    Archivos adjuntados Archivos adjuntados
    Última edición por luisIreneo; 05-07-2015 a las 22:18:06

  2. Los siguientes 5 usuarios agradecen el post de luisIreneo:


  3. #2
    Amigos de SubAdictos Avatar de luisIreneo
    Fecha de ingreso
    02-01-2013
    Ubicación
    Córdoba
    Mensajes
    17,741
    Agradecimientos: 35035

    Predeterminado

    Exange.[Hahithalfut].2011.BRRip.AC3.HORiZON-ArtSubs
    Duration: 01:35:44.92, start: 0.000000, bitrate: 2041 kb/s
    Stream #0.0: Video: mpeg4 (Advanced Simple Profile), yuv420p, 688x384 [PAR 1:1 DAR 43:24], 25 tbr, 25 tbn, 25 tbc
    Stream #0.1: Audio: ac3, 48000 Hz, 5.1, s16, 448 kb/s
    Hahithalfut aka The Exchange 2011 DVDRip Sonata Premiere
    Formato : AVI
    Tamaño del archivo : 689 MB
    Duración : 1h 35min.
    Tasa de bits : 866 Kbps
    Ancho : 688 pixeles
    Alto : 384 pixeles
    Velocidad de cuadro : 25,00 fps
    Formato : MPEG Audio
    Tasa de bits : 128 Kbps
    Canal(es) : 2 canales
    Velocidad de muestreo : 44,1KHz
    Capturas
    Spoiler:
    SPOILER:






    1 win & 10 nominations.

    Subtítulos subido por ChadItes
    Última edición por luisIreneo; 06-07-2015 a las 00:22:13

  4. #3
    Amigos de SubAdictos Avatar de luisIreneo
    Fecha de ingreso
    02-01-2013
    Ubicación
    Córdoba
    Mensajes
    17,741
    Agradecimientos: 35035

    Predeterminado

    Hay subtítulos en español, la estoy descargando para verificarcar que esten sincronizados.

  5. Los siguientes usuarios agradecen a luisIreneo por este tema:

     lubi5

  6. #4
    Adicto Sin Retorno Avatar de mediodia
    Fecha de ingreso
    28-10-2012
    Mensajes
    3,628
    Agradecimientos: 1996

    Predeterminado

    Muchas gracias, Luís, por la peli y por ese plus de comprobar si los subtítulos calzan con la peli.

  7. Los siguientes usuarios agradecen a mediodia por este tema:


  8. #5
    Amigos de SubAdictos Avatar de luisIreneo
    Fecha de ingreso
    02-01-2013
    Ubicación
    Córdoba
    Mensajes
    17,741
    Agradecimientos: 35035

    Predeterminado

    Cita Iniciado por mediodia Ver mensaje
    Muchas gracias, Luís, por la peli y por ese plus de comprobar si los subtítulos calzan con la peli.
    Gracias mediodia.

    Comprobados los subtítulos en español. Muevo a Drama (+)

Información de tema

Usuarios viendo este tema

Actualmente hay 1 usuarios viendo este tema. (0 miembros y 1 visitantes)

Temas similares

  1. Valley of Love (2015) [HORiZON-ArtSubs-Sonata Premiere]
    Por luisIreneo en el foro Drama (+)
    Respuestas: 16
    Último mensaje: 12-05-2017, 20:47:49
  2. Still Life (2013) [HORiZON-ArtSubs - Sonata Premiere]
    Por pepe2982 en el foro Comedia (+)
    Respuestas: 17
    Último mensaje: 05-09-2016, 20:21:50
  3. Respuestas: 24
    Último mensaje: 29-07-2016, 03:19:12
  4. Respuestas: 1
    Último mensaje: 12-01-2015, 14:16:08
  5. Bethlehem (2013) [HORiZON-ArtSubs - Sonata Premiere]
    Por pepe2982 en el foro Thriller / Crimen (+)
    Respuestas: 11
    Último mensaje: 04-10-2014, 07:38:05

Miembros que han leído este tema: 11

Permisos de publicación

  • No puedes crear nuevos temas
  • No puedes responder temas
  • No puedes subir archivos adjuntos
  • No puedes editar tus mensajes
  •