Resultados 1 al 3 de 3

Tema: Running on Empty (1988) [EXViD - LiGHTNiNG]

  1. #1
    Adicto Sin Retorno Avatar de christianh
    Fecha de ingreso
    06-05-2012
    Mensajes
    525
    Agradecimientos: 157

    Estados Unidos Running on Empty (1988) [EXViD - LiGHTNiNG]

    Running on Empty (1988)
    Sinopsis:
    Un matrimonio esconde un oscuro pasado: durante su juventud en los años 60 fueron militantes de un grupo radical violento. Un atentado con bomba, que causó varios heridos graves, los ha obligado a vivir clandestinamente y a cambiar continuamente de domicilio y de nombres para evitar ser localizados por el FBI.
    Datos Película:
    Director: Sidney Lumet.
    Reparto: Christine Lahti, Judd Hirsch, River Phoenix, Martha Plimpton, Jonas Abry, Ed Crowley, L.M. Kit Carson, Augusta Dabney, Steven Hill.
    País: Estados Unidos.
    Género: Drama, Familia.
    Duración: 116 Minutos.
    Más Detalles en Film Affinity
     
    E-links:
    CD 1
    CD 2
    Torrent / Magnet:
    Bajar Película
    Subtítulos:

    Bajar Subtítulos en Español (Torrent)
    Última edición por christianh; 26-07-2015 a las 15:01:51
    Se que soy hueso y carne, alma y conciencia, pueblo y sudor
    con eso ya me alcanza pa'ser un bruto que alza la voz

  2. Los siguientes 9 usuarios agradecen el post de christianh:


  3. #2
    Adicto Sin Retorno Avatar de christianh
    Fecha de ingreso
    06-05-2012
    Mensajes
    525
    Agradecimientos: 157

    Predeterminado

    Info Release:

    Spoiler:
    SPOILER:
    .

    http://www.torrenting.com/ : Greatest Movie Tracker on The Net!!!

    http://www.Torrenting.com : Once & For all


    www . Torrenting . Com

    (((((((((((((= Enjoy No RAR releases =))))))))))))))))))))


    ...................................NFO:........... .........................

    .









    EXVID



    Filled the Archives



    With:




    E240

    SP (C) 2009






    Running.on.Empty.1988.WS.DVDRip.XviD-EXViD




    EXViD aims to iNTERNAL those releases which have been lost in the archives.
    EXViD aims to PRE non-internal releases which have poor sources and are likely skipped by others.

    http://www.imdb.com/title/tt0096018/
    Subtitles: EN, AR, FR, IT, EN HI, IT HI
    Date: 2011.08

    Director: Sidney Lumet

    Genres: Crime | Drama | Music

    Plot:
    The Popes are a family who haven't been able to use their real identity for years. In the late
    sixties, the parents set a weapons lab afire in an effort to hinder the government's Vietnam war
    campaign. Ever since then, the Popes have been on the run with the authorities never far behind.
    Today, their eldest son wants a life of his own although he is aware that would mean that his
    parents would either get caught or he will never see them again.

    Cast:
    Christine Lahti ... Annie Pope / Cynthia Manfield
    River Phoenix ... Danny Pope / Michael Manfield
    Judd Hirsch ... Arthur Pope / Paul Manfield
    Jonas Abry ... Harry Pope / Stephen Manfield
    Martha Plimpton ... Lorna Phillips
    Ed Crowley ... Mr. Phillips
    L.M. Kit Carson ... Gus Winant
    Steven Hill ... Donald Patterson
    Augusta Dabney ... Abigail Patterson
    David Margulies ... Dr. Jonah Reiff
    Lynne Thigpen ... Contact at Eldridge St.
    Marcia Jean Kurtz ... School Clerk
    Sloane Shelton ... Mrs. Phillips
    Justine Johnston ... Librarian
    Herb Lovelle ... Hospital Clerk

    Stats:
    Format : AVI
    Format/Info : Audio Video Interleave
    File size : 1.37 GiB
    Duration : 1h 51mn
    Overall bit rate : 1 757 Kbps
    Writing application : Nandub v1.0rc2
    Writing library : Nandub build 1852/release

    Video
    ID : 0
    Format : MPEG-4 Visual
    Format profile : Advanced [email protected]
    Format settings, BVOP : 1
    Format settings, QPel : No
    Format settings, GMC : No warppoints
    Format settings, Matrix : Default (H.263)
    Codec ID : XVID
    Codec ID/Hint : XviD
    Duration : 1h 51mn
    Bit rate : 1 629 Kbps
    Width : 624 pixels
    Height : 352 pixels
    Display aspect ratio : 16:9
    Frame rate : 25.000 fps
    Color space : YUV
    Chroma subsampling : 4:2:0
    Bit depth : 8 bits
    Scan type : Progressive
    Compression mode : Lossy
    Bits/(Pixel*Frame) : 0.297
    Stream size : 1.27 GiB (93%)
    Writing library : XviD 64

    Audio
    ID : 1
    Format : MPEG Audio
    Format version : Version 1
    Format profile : Layer 3
    Codec ID : 55
    Codec ID/Hint : MP3
    Duration : 1h 51mn
    Bit rate mode : Variable
    Bit rate : 115 Kbps
    Nominal bit rate : 128 Kbps
    Channel(s) : 1 channel
    Sampling rate : 48.0 KHz
    Compression mode : Lossy
    Stream size : 91.4 MiB (7%)
    Alignment : Aligned on interleaves
    Interleave, duration : 24 ms (0.60 video frame)
    Interleave, preload duration : 499 ms
    Writing library : LAME3.98r
    Encoding settings : -m m -V 4 -q 3 -lowpass 20.5 --abr 128




    Release notes:
    The 2002 LiGHTNiNG rip was FS. The WS DVD wasn't available until 2005.

    enjoy!

    Looking for:
    75TB+ Archives
    DUTCH/FLEMiSH Archives

    Greets: CRBS EPiSODE FiCO FLS iLS KLASSiGER LiPSYNC MADE NODLABS RUNNER SPRiNTER


    ASCII DONE BY XX^NFO 2oo9
    Última edición por christianh; 26-07-2015 a las 15:00:15

  4. #3
    Adicto Sin Retorno Avatar de christianh
    Fecha de ingreso
    06-05-2012
    Mensajes
    525
    Agradecimientos: 157

    Predeterminado

    Última edición por christianh; 26-07-2015 a las 15:01:12

Información de tema

Usuarios viendo este tema

Actualmente hay 1 usuarios viendo este tema. (0 miembros y 1 visitantes)

Temas similares

  1. Empty Rooms (2012) [TASTE]
    Por the darkness en el foro Terror / Horror
    Respuestas: 4
    Último mensaje: 24-08-2013, 14:27:43
  2. Empty (2011) [FiCO]
    Por McalvinoV en el foro Drama (+)
    Respuestas: 9
    Último mensaje: 22-08-2011, 17:51:11
  3. I'll Come Running (2008) [AEN]
    Por McalvinoV en el foro Recuperación de Películas
    Respuestas: 0
    Último mensaje: 17-12-2010, 19:35:15
  4. La noia / The Empty Canvas (1963)
    Por Marime en el foro Drama (+)
    Respuestas: 0
    Último mensaje: 05-10-2010, 20:44:46
  5. Off and Running (2009) [SUBMERGE]
    Por McalvinoV en el foro Documentales
    Respuestas: 0
    Último mensaje: 19-08-2010, 18:38:25

Miembros que han leído este tema: 0

Permisos de publicación

  • No puedes crear nuevos temas
  • No puedes responder temas
  • No puedes subir archivos adjuntos
  • No puedes editar tus mensajes
  •