Resultados 1 al 5 de 5

Tema: Black Water (2007) [FGT] 720p WEB-DL

  1. #1
    Amigos de SubAdictos Avatar de hacu
    Fecha de ingreso
    13-02-2010
    Mensajes
    6,939
    Agradecimientos: 4872

    Australia Black Water (2007) [FGT] 720p WEB-DL

    Black Water (2007)
    Sinopsis:
    Basado en hechos reales. Grace, su novio Adam y Lee, su hermana pequeña, pasan las vacaciones en un lugar remoto del Norte de Australia. Acompañados por Jim, un experto guía, deciden adentrarse en un pantano. De repente, su barca se vuelca y en medio de la confusión, Jim desaparece. Los tres jóvenes descubren que han sido atacados por un cocodrilo. Desorientados y exhaustos, Grace, Adam y Lee emprenderán la lucha por la supervivencia.
    Datos Película:
    Director: Andrew Traucki, David Nerlich.
    Reparto: Ben Oxenbould, Maeve Dermody, Diana Glenn, Fiona Press, Andy Rodoreda.
    País: Australia.
    Género: Terror, Aventuras, Thriller, Basado en hechos reales, Animales, Cocodrilos.
    Duración: 90 Minutos.
    Más Detalles en Film Affinity
     
    E-links:
    No Disponible
    Torrent / Magnet:
    Bajar Película
    Subtítulos:
    Bajar Subtítulos en Español
    Descargas Directas:

    Varios 1 link
    http://nitroflare.com/view/C861B9B09DF7573/Black.Water.2007.720p.WEB-DL.DD5.1.H264-FGT.mkv
    
    http://rapidgator.net/file/52c91bf4d1c8023c1533bd70fd058154/Black.Water.2007.720p.WEB-DL.DD5.1.H264-FGT.mkv.html
    
    http://uploaded.net/file/0s5art1z/Black.Water.2007.720p.WEB-DL.DD5.1.H264-FGT.mkv
    Última edición por hacu; 14-06-2017 a las 23:02:57 Razón: UP afiche

  2. Los siguentes 8 usuarios agradecen el post de hacu:


  3. #2
    Amigos de SubAdictos Avatar de hacu
    Fecha de ingreso
    13-02-2010
    Mensajes
    6,939
    Agradecimientos: 4872

    Predeterminado

    TRAILER



    INFO FGT

    Video
    ID : 1
    Format : AVC
    Format/Info : Advanced Video Codec
    Format profile : High@L3.1
    Format settings, CABAC : No
    Format settings, ReFrames : 2 frames
    Codec ID : V_MPEG4/ISO/AVC
    Duration : 1h 29mn
    Bit rate : 3 934 Kbps
    Width : 1 280 pixels
    Height : 718 pixels
    Display aspect ratio : 16:9
    Frame rate mode : Constant
    Frame rate : 23.976 fps
    Color space : YUV
    Chroma subsampling : 4:2:0
    Bit depth : 8 bits
    Scan type : Progressive
    Bits/(Pixel*Frame) : 0.179
    Stream size : 2.45 GiB (89%)
    Title : Black.Water.2007.720p.WEB-DL.DD5.1.H264-FGT
    Language : English
    Default : Yes
    Forced : No
    Color range : Limited
    Color primaries : BT.709
    Transfer characteristics : BT.709
    Matrix coefficients : BT.709

    Audio
    ID : 2
    Format : AC-3
    Format/Info : Audio Coding 3
    Mode extension : CM (complete main)
    Format settings, Endianness : Big
    Codec ID : A_AC3
    Duration : 1h 29mn
    Bit rate mode : Constant
    Bit rate : 384 Kbps
    Channel(s) : 6 channels
    Channel positions : Front: L C R, Side: L R, LFE
    Sampling rate : 48.0 KHz
    Bit depth : 16 bits
    Compression mode : Lossy
    Stream size : 245 MiB (9%)
    Title : Black.Water.2007.720p.WEB-DL.DD5.1.H264-FGT
    Language : English
    Default : Yes
    Forced : No

    Text
    ID : 3
    Format : UTF-8
    Codec ID : S_TEXT/UTF8
    Codec ID/Info : UTF-8 Plain Text
    Language : English
    Default : Yes
    Forced : No
    Última edición por hacu; 10-06-2017 a las 14:15:03

  4. Los siguentes 4 usuarios agradecen el post de hacu:


  5. #3
    Subtitulador Avatar de jmarple
    Fecha de ingreso
    28-09-2014
    Ubicación
    junto al mar
    Mensajes
    10,641
    Agradecimientos: 18619

    Predeterminado

    ¡Gracias @hacu!

  6. Los siguientes usuarios agradecen a jmarple por este tema:

     hacu

  7. #4
    Subtitulador Avatar de fanny
    Fecha de ingreso
    08-07-2015
    Ubicación
    Galicia
    Edad
    45
    Mensajes
    67,092
    Agradecimientos: 99481

    Predeterminado

    Gracias hacu

  8. Los siguientes usuarios agradecen a fanny por este tema:

     hacu

  9. #5
    Adicto Sin Retorno Avatar de jodidolunes
    Fecha de ingreso
    09-07-2011
    Ubicación
    Buenos Aires
    Mensajes
    1,859
    Agradecimientos: 899

    Predeterminado

    Muchas Gracias.

  10. Los siguientes usuarios agradecen a jodidolunes por este tema:

     hacu

Información de tema

Usuarios viendo este tema

Actualmente hay 1 usuarios viendo este tema. (0 miembros y 1 visitantes)

Temas similares

  1. Black Water (2007) [BeStDivX]
    Por McalvinoV en el foro Terror / Horror (+)
    Respuestas: 4
    Último mensaje: 03-12-2015, 03:46:37
  2. The Black Water Vampire (2014) [AQOS]
    Por el profundo en el foro Terror / Horror (+)
    Respuestas: 7
    Último mensaje: 05-04-2014, 19:57:33
  3. Respuestas: 6
    Último mensaje: 03-11-2012, 18:44:38
  4. Open Water (2003) [AMIABLE] 720p
    Por Marime en el foro Terror / Horror HD (+)
    Respuestas: 2
    Último mensaje: 07-07-2011, 13:52:59
  5. The Water Horse (2007) [aXXo]
    Por hacu en el foro Aventuras / Familia (+)
    Respuestas: 0
    Último mensaje: 03-03-2010, 00:14:03

Miembros que han leído este tema: 37

Permisos de publicación

  • No puedes crear nuevos temas
  • No puedes responder temas
  • No puedes subir archivos adjuntos
  • No puedes editar tus mensajes
  •