Resultados 1 al 2 de 2

Tema: Race the Sun (1996) [FGT] 720p WEB-DL

  1. #1
    Amigos de SubAdictos Avatar de hacu
    Fecha de ingreso
    13-02-2010
    Mensajes
    6,939
    Agradecimientos: 4985

    Estados Unidos Race the Sun (1996) [FGT] 720p WEB-DL

    Race the Sun (1996)
    Sinopsis:
    Un grupo de alumnos de una escuela de Hawaii construyen una serie de coches solares, embarcándose en una aventura que les llevará a competir en el campeonato mundial de coches solares que tendrá lugar en Australia.
    Datos Película:
    Director: Charles T. Kanganis.
    Reparto: Halle Berry, James Belushi, Bill Hunter, Casey Affleck, Eliza Dushku, Kevin Tighe, Anthony Ruivivar, J. Moki Cho, Dion Basco, Nadja Pionilla, Joel Edgerton.
    País: Estados Unidos.
    Género: Comedia, Aventuras, Drama.
    Duración: 96 Minutos.
    Más Detalles en Film Affinity
     
    E-links:
    No Disponible
    Torrent / Magnet:
    Bajar Película
    Subtítulos:
    No Disponible
    Descargas Directas:

    Varios 1 link
    http://nitroflare.com/view/A9FE2360ED6C5A4/Race.the.Sun.1996.720p.WEB-DL.DD5.1.H264-FGT.mkv
    
    http://rapidgator.net/file/89ed1c438af7960952dd48ac594ecc85/Race.the.Sun.1996.720p.WEB-DL.DD5.1.H264-FGT.mkv.html
    
    http://uploaded.net/file/lu3lz6b5/Race.the.Sun.1996.720p.WEB-DL.DD5.1.H264-FGT.mkv
    Última edición por hacu; 14-06-2017 a las 22:56:19 Razón: UP afiche

  2. Los siguientes usuarios agradecen a hacu por este tema:

     chus

  3. #2
    Amigos de SubAdictos Avatar de hacu
    Fecha de ingreso
    13-02-2010
    Mensajes
    6,939
    Agradecimientos: 4985

    Predeterminado

    TRAILER



    INFO FGT 720p

    Video
    ID : 1
    Format : AVC
    Format/Info : Advanced Video Codec
    Format profile : High@L3.1
    Format settings, CABAC : No
    Format settings, ReFrames : 2 frames
    Codec ID : V_MPEG4/ISO/AVC
    Duration : 1 h 39 min
    Bit rate : 4 192 kb/s
    Width : 1 280 pixels
    Height : 716 pixels
    Display aspect ratio : 16:9
    Frame rate mode : Constant
    Frame rate : 23.976 FPS
    Color space : YUV
    Chroma subsampling : 4:2:0
    Bit depth : 8 bits
    Scan type : Progressive
    Bits/(Pixel*Frame) : 0.191
    Stream size : 2.92 GiB (90%)
    Title : Race.the.Sun.1996.720p.WEB-DL.DD5.1.H264-FGT
    Language : English
    Default : Yes
    Forced : No
    Color range : Limited
    Color primaries : BT.709
    Transfer characteristics : BT.709
    Matrix coefficients : BT.709

    Audio
    ID : 2
    Format : AC-3
    Format/Info : Audio Coding 3
    Format settings, Endianness : Big
    Codec ID : A_AC3
    Duration : 1 h 39 min
    Bit rate mode : Constant
    Bit rate : 384 kb/s
    Channel(s) : 6 channels
    Channel positions : Front: L C R, Side: L R, LFE
    Sampling rate : 48.0 kHz
    Frame rate : 31.250 FPS (1536 spf)
    Bit depth : 16 bits
    Compression mode : Lossy
    Stream size : 274 MiB (8%)
    Title : Race.the.Sun.1996.720p.WEB-DL.DD5.1.H264-FGT
    Language : English
    Service kind : Complete Main
    Default : Yes
    Forced : No

    Text
    ID : 3
    Format : UTF-8
    Codec ID : S_TEXT/UTF8
    Codec ID/Info : UTF-8 Plain Text
    Language : English
    Default : Yes
    Forced : No

  4. Los siguientes usuarios agradecen a hacu por este tema:

     chus

Información de tema

Usuarios viendo este tema

Actualmente hay 1 usuarios viendo este tema. (0 miembros y 1 visitantes)

Temas similares

  1. Race the Sun (1996) [Muko]
    Por Marime en el foro Comedia (+)
    Respuestas: 3
    Último mensaje: 13-06-2017, 21:56:23
  2. The Dentist (1996) [FGT] 720p WEB-DL
    Por McalvinoV en el foro Terror / Horror HD (+)
    Respuestas: 5
    Último mensaje: 21-02-2016, 13:08:40
  3. The Human Race (2013) [EFFECT] 720p
    Por the darkness en el foro Terror / Horror HD (+)
    Respuestas: 4
    Último mensaje: 05-02-2014, 21:58:59
  4. Death Race: Inferno / Death Race 3 (2013) [PTpOWeR]
    Por pepe2982 en el foro Acción (+)
    Respuestas: 3
    Último mensaje: 14-01-2013, 14:14:16
  5. Death Race 2 (2010) [AVCHD] 720p
    Por McalvinoV en el foro Acción HD (+)
    Respuestas: 4
    Último mensaje: 04-01-2011, 21:35:14

Miembros que han leído este tema: 21

Permisos de publicación

  • No puedes crear nuevos temas
  • No puedes responder temas
  • No puedes subir archivos adjuntos
  • No puedes editar tus mensajes
  •