Resultados 1 al 4 de 4

Tema: The Hatton Garden Job (2017) [RARBG] 720p / 1080p

  1. #1
    Amigos de SubAdictos Avatar de hacu
    Fecha de ingreso
    13-02-2010
    Mensajes
    6,939
    Agradecimientos: 4875

    Reino Unido The Hatton Garden Job (2017) [RARBG] 720p / 1080p

    The Hatton Garden Job (2017)
    Sinopsis:
    En abril de 2015, la compañía de depósito de seguridad de Hatton Garden, una instalación de depósito de seguridad subterránea en el área de Hatton Garden en Londres, fue robada por cuatro hombres mayores. El total robado puede tener un valor de hasta 200 millones de libras esterlinas, el incidente ha sido llamado "el robo más grande en la historia legal inglesa.
    Datos Película:
    Director: Ronnie Thompson.
    Reparto: Matthew Goode, Joely Richardson, Stephen Moyer, Clive Russell, Phil Daniels, David Calder, Larry Lamb, Jack Doolan, Mark Harris, Duncan Casey, Craig Russell, Luke Junior, Michael Chapman, Benny Bereal, Julian Gamm, Sen Monro.
    País: Reino Unido.
    Género: Thriller, Crimen.
    Duración: 100 Minutos.
    Más Detalles en Film Affinity
     
    E-links:
    No Disponible
    Torrent / Magnet:
    Bajar Película 720p
    Bajar Película 1080p
    Subtítulos:
    No Disponible
    Descargas Directas:

    RARBG 720p
    http://nitroflare.com/view/49F6D508B4A3B92/The.Hatton.Garden.Job.2017.720p.BluRay.H264.AAC-RARBG.mp4
    
    http://rapidgator.net/file/c20372b8299de9af25b29fc77df522cf/The.Hatton.Garden.Job.2017.720p.BluRay.H264.AAC-RARBG.mp4.html
    
    http://uploaded.net/file/m0f0nql1/The.Hatton.Garden.Job.2017.720p.BluRay.H264.AAC-RARBG.mp4
    RARBG 1080p
    http://nitroflare.com/view/11DD93A596D004E/The.Hatton.Garden.Job.2017.1080p.BluRay.H264.AAC-RARBG.mp4
    
    http://rapidgator.net/file/d9fc59f91bd7a05ed799965b5c70dbee/The.Hatton.Garden.Job.2017.1080p.BluRay.H264.AAC-RARBG.mp4.html
    
    http://uploaded.net/file/tf44oq4r/The.Hatton.Garden.Job.2017.1080p.BluRay.H264.AAC-RARBG.mp4
    Última edición por hacu; 14-06-2017 a las 21:45:29

  2. Los siguentes 11 usuarios agradecen el post de hacu:


  3. #2
    Amigos de SubAdictos Avatar de hacu
    Fecha de ingreso
    13-02-2010
    Mensajes
    6,939
    Agradecimientos: 4875

    Predeterminado

    TRAILER



    INFO RARBG 720p
    Video
    ID : 1
    Format : AVC
    Format/Info : Advanced Video Codec
    Format profile : High@L4.1
    Format settings, CABAC : Yes
    Format settings, ReFrames : 4 frames
    Codec ID : avc1
    Codec ID/Info : Advanced Video Coding
    Duration : 1h 32mn
    Bit rate : 1 500 Kbps
    Width : 1 280 pixels
    Height : 694 pixels
    Display aspect ratio : 1.85:1
    Frame rate mode : Constant
    Frame rate : 23.976 (23976/1000) fps
    Color space : YUV
    Chroma subsampling : 4:2:0
    Bit depth : 8 bits
    Scan type : Progressive
    Bits/(Pixel*Frame) : 0.070
    Stream size : 995 MiB (87%)
    Writing library : x264 core 148 r2597M e86f3a1
    Encoding settings : cabac=1 / ref=4 / deblock=1:-1:-1 / analyse=0x3:0x113 / me=umh / subme=9 / psy=1 / psy_rd=1.00:0.15 / mixed_ref=1 / me_range=24 / chroma_me=1 / trellis=2 / 8x8dct=1 / cqm=0 / deadzone=21,11 / fast_pskip=1 / chroma_qp_offset=-3 / threads=32 / lookahead_threads=4 / sliced_threads=0 / nr=0 / decimate=1 / interlaced=0 / bluray_compat=0 / constrained_intra=0 / bframes=3 / b_pyramid=2 / b_adapt=2 / b_bias=0 / direct=3 / weightb=1 / open_gop=0 / weightp=2 / keyint=250 / keyint_min=25 / scenecut=40 / intra_refresh=0 / rc_lookahead=50 / rc=2pass / mbtree=1 / bitrate=1500 / ratetol=1.0 / qcomp=0.60 / qpmin=0 / qpmax=69 / qpstep=4 / cplxblur=20.0 / qblur=0.5 / vbv_maxrate=31250 / vbv_bufsize=31250 / nal_hrd=none / filler=0 / ip_ratio=1.40 / aq=3:1.00
    Encoded date : UTC 2017-06-14 14:14:40
    Tagged date : UTC 2017-06-14 14:14:40

    Audio
    ID : 2
    Format : AAC
    Format/Info : Advanced Audio Codec
    Format profile : LC
    Codec ID : 40
    Duration : 1h 32mn
    Bit rate mode : Constant
    Bit rate : 224 Kbps
    Channel(s) : 2 channels
    Channel(s)_Original : 6 channels
    Channel positions : Front: L C R, Side: L R, LFE
    Sampling rate : 48.0 KHz
    Frame rate : 46.875 fps (1024 spf)
    Compression mode : Lossy
    Stream size : 149 MiB (13%)
    Language : English
    Default : Yes
    Alternate group : 1
    Encoded date : UTC 2017-06-14 14:14:40
    Tagged date : UTC 2017-06-14 14:14:40
    INFO RARBG 1080p
    Video
    ID : 1
    Format : AVC
    Format/Info : Advanced Video Codec
    Format profile : High@L4.1
    Format settings, CABAC : Yes
    Format settings, ReFrames : 4 frames
    Codec ID : avc1
    Codec ID/Info : Advanced Video Coding
    Duration : 1h 32mn
    Bit rate : 2 500 Kbps
    Width : 1 920 pixels
    Height : 1 040 pixels
    Display aspect ratio : 1.85:1
    Frame rate mode : Constant
    Frame rate : 23.976 (23976/1000) fps
    Color space : YUV
    Chroma subsampling : 4:2:0
    Bit depth : 8 bits
    Scan type : Progressive
    Bits/(Pixel*Frame) : 0.052
    Stream size : 1.62 GiB (92%)
    Writing library : x264 core 148 r2597M e86f3a1
    Encoding settings : cabac=1 / ref=4 / deblock=1:-1:-1 / analyse=0x3:0x113 / me=umh / subme=9 / psy=1 / psy_rd=1.00:0.15 / mixed_ref=1 / me_range=24 / chroma_me=1 / trellis=2 / 8x8dct=1 / cqm=0 / deadzone=21,11 / fast_pskip=1 / chroma_qp_offset=-3 / threads=32 / lookahead_threads=4 / sliced_threads=0 / nr=0 / decimate=1 / interlaced=0 / bluray_compat=0 / constrained_intra=0 / bframes=3 / b_pyramid=2 / b_adapt=2 / b_bias=0 / direct=3 / weightb=1 / open_gop=0 / weightp=2 / keyint=250 / keyint_min=25 / scenecut=40 / intra_refresh=0 / rc_lookahead=50 / rc=2pass / mbtree=1 / bitrate=2500 / ratetol=1.0 / qcomp=0.60 / qpmin=0 / qpmax=69 / qpstep=4 / cplxblur=20.0 / qblur=0.5 / vbv_maxrate=31250 / vbv_bufsize=31250 / nal_hrd=none / filler=0 / ip_ratio=1.40 / aq=3:1.00
    Encoded date : UTC 2017-06-14 14:49:19
    Tagged date : UTC 2017-06-14 14:49:19

    Audio
    ID : 2
    Format : AAC
    Format/Info : Advanced Audio Codec
    Format profile : LC
    Codec ID : 40
    Duration : 1h 32mn
    Bit rate mode : Constant
    Bit rate : 224 Kbps
    Channel(s) : 2 channels
    Channel(s)_Original : 6 channels
    Channel positions : Front: L C R, Side: L R, LFE
    Sampling rate : 48.0 KHz
    Frame rate : 46.875 fps (1024 spf)
    Compression mode : Lossy
    Stream size : 149 MiB (8%)
    Language : English
    Default : Yes
    Alternate group : 1
    Encoded date : UTC 2017-06-14 14:49:19
    Tagged date : UTC 2017-06-14 14:49:19

  4. Los siguentes 4 usuarios agradecen el post de hacu:


  5. #3
    Sin Adicción Avatar de advocatio
    Fecha de ingreso
    19-07-2012
    Mensajes
    12
    Agradecimientos: 4

    Predeterminado SUBTITULOS

    LOS SUBTITULOS EN INLES EN EL SIGUIENTE LINK

    http://www.subtitulando.com.ar/subtitulo-the-hatton-garden-job-2017-720p-bluray-h264-aac-rarbg-385659

    espero sea util
    Saludfos Ernesto

  6. #4
    Subtitulador Avatar de fanny
    Fecha de ingreso
    08-07-2015
    Ubicación
    Galicia
    Edad
    45
    Mensajes
    67,227
    Agradecimientos: 99806

    Predeterminado

    Gracia hacu

Información de tema

Usuarios viendo este tema

Actualmente hay 1 usuarios viendo este tema. (0 miembros y 1 visitantes)

Temas similares

  1. The Hatton Garden Job (2017) [RARBG]
    Por hacu en el foro Thriller / Crimen (+)
    Respuestas: 16
    Último mensaje: 05-05-2019, 14:28:44
  2. The Man From U.N.C.L.E. (2015) [RARBG] 720p / 1080p WEB-DL
    Por luisIreneo en el foro Acción HD (+)
    Respuestas: 14
    Último mensaje: 01-06-2016, 03:07:18
  3. Joy (2015) [RARBG] 720p / 1080p WEB-DL
    Por luisIreneo en el foro Comedia HD (+)
    Respuestas: 8
    Último mensaje: 20-04-2016, 01:44:50
  4. Respuestas: 26
    Último mensaje: 22-01-2016, 19:15:46
  5. Survivor (2014) [RARBG] 720p / 1080p WEB-DL
    Por luisIreneo en el foro Sci-Fi HD (+)
    Respuestas: 3
    Último mensaje: 11-01-2015, 15:14:54

Miembros que han leído este tema: 43

Permisos de publicación

  • No puedes crear nuevos temas
  • No puedes responder temas
  • No puedes subir archivos adjuntos
  • No puedes editar tus mensajes
  •