Resultados 1 al 5 de 5

Tema: Conan the Destroyer (1984) [RARBG] 720p

  1. #1
    Amigos de SubAdictos Avatar de hacu
    Fecha de ingreso
    13-02-2010
    Mensajes
    6,939
    Agradecimientos: 4936

    Estados Unidos Conan the Destroyer (1984) [RARBG] 720p

    Conan the Destroyer (1984)
    Sinopsis:
    La poderosa Reina Taramis promete a Conan hacer volver a su amada del Reino de la Muerte, pero con una condición: debe traerle un legendario cuerno con piedras preciosas incrustadas y a una bella y joven princesa. Lo que Conan ignora es que la Reina quiere utilizar el cuerno para despertar al durmiente dios Dagoth y sacrificarle a la princesa. Enfrentado con enemigos mortales y sobrenaturales, Conan debe convocar a las fuerzas del Bien para derrotar a Taramis e incluso al mismísimo dios Dagoth.
    Datos Película:
    Director: Richard Fleischer.
    Reparto: Arnold Schwarzenegger, Grace Jones, Wilt Chamberlain, Tracey Walter, Sarah Douglas, Mako, Olivia d'Abo.
    País: Estados Unidos.
    Género: Aventuras, Acción, Fantástico, Fantasía medieval, Espada y brujería, Cómic, Secuela, Conan.
    Duración: 103 Minutos.
    Más Detalles en Film Affinity
     
    E-links:
    No Disponible
    Torrent / Magnet:
    Bajar Película
    Subtítulos:
    Bajar Subtítulos en Español
    Descargas Directas:

    Varios 1 link
    http://nitroflare.com/view/9D6E1D7F2B96AB9/Conan.The.Destroyer.1984.720p.BluRay.H264.AAC-RARBG.mp4
    
    http://rapidgator.net/file/2c4bc938b30b0f329ce9e2d889eee52d/Conan.The.Destroyer.1984.720p.BluRay.H264.AAC-RARBG.mp4.html
    
    http://uploaded.net/file/mr4l76yq/Conan.The.Destroyer.1984.720p.BluRay.H264.AAC-RARBG.mp4

  2. Los siguientes 7 usuarios agradecen el post de hacu:


  3. #2
    Amigos de SubAdictos Avatar de hacu
    Fecha de ingreso
    13-02-2010
    Mensajes
    6,939
    Agradecimientos: 4936

    Predeterminado



    Video
    ID : 1
    Format : AVC
    Format/Info : Advanced Video Codec
    Format profile : High@L4.1
    Format settings, CABAC : Yes
    Format settings, ReFrames : 4 frames
    Codec ID : avc1
    Codec ID/Info : Advanced Video Coding
    Duration : 1 h 41 min
    Bit rate : 1 500 kb/s
    Width : 1 280 pixels
    Height : 544 pixels
    Display aspect ratio : 2.35:1
    Frame rate mode : Constant
    Frame rate : 23.976 (23976/1000) FPS
    Color space : YUV
    Chroma subsampling : 4:2:0
    Bit depth : 8 bits
    Scan type : Progressive
    Bits/(Pixel*Frame) : 0.090
    Stream size : 1.06 GiB (87%)
    Writing library : x264 core 148 r2638M 7599210
    Encoded date : UTC 2017-06-23 00:08:36
    Tagged date : UTC 2017-06-23 00:08:36

    Audio
    ID : 2
    Format : AAC
    Format/Info : Advanced Audio Codec
    Format profile : LC
    Codec ID : 40
    Duration : 1 h 41 min
    Bit rate mode : Constant
    Bit rate : 224 kb/s
    Channel(s) : 2 channels
    Channel(s)_Original : 6 channels
    Channel positions : Front: L C R, Side: L R, LFE
    Sampling rate : 48.0 kHz
    Frame rate : 46.875 FPS (1024 spf)
    Compression mode : Lossy
    Stream size : 162 MiB (13%)
    Language : English
    Default : Yes
    Alternate group : 1
    Encoded date : UTC 2017-06-23 00:08:36
    Tagged date : UTC 2017-06-23 00:08:36
    Spoiler:
    SPOILER:

  4. Los siguientes 4 usuarios agradecen el post de hacu:


  5. #3
    Adicto Sin Retorno Avatar de fokito52
    Fecha de ingreso
    20-06-2010
    Ubicación
    Tampico
    Mensajes
    3,314
    Agradecimientos: 1088

    Predeterminado

    Gracias hacu, ya la tengo pero no en HD, así que a bajarla

  6. #4
    Subtitulador Avatar de fanny
    Fecha de ingreso
    08-07-2015
    Ubicación
    Galicia
    Edad
    45
    Mensajes
    71,417
    Agradecimientos: 105477

    Predeterminado

    Vaya clásico!!!!!!!!!!!!!!
    Gracias hacu

  7. #5
    Adicto Sin Retorno Avatar de Kahego
    Fecha de ingreso
    03-02-2012
    Ubicación
    Cali - Valle del Cauca
    Edad
    49
    Mensajes
    1,339
    Agradecimientos: 1399


    Seguir a Kahego en Twitter Agrega a Kahego en Facebook

    Predeterminado

    Gracias @hacu.

    Una de las películas obligadas a ver en los años 80, junto con su precuela "Conan the Barbarian" de 1982.

    Si eres de los 70, y no viste las películas de Conan con Schwarzenegger como protagonista, no tuviste infancia.



    "Quien monta en bicicleta es mi amigo."

  8. Los siguientes usuarios agradecen a Kahego por este tema:

     fanny

Información de tema

Usuarios viendo este tema

Actualmente hay 1 usuarios viendo este tema. (0 miembros y 1 visitantes)

Temas similares

  1. Conan in Cuba (2015)
    Por Fernando355 en el foro Documentales (+)
    Respuestas: 7
    Último mensaje: 19-05-2016, 14:03:23
  2. Destroyer / Shadow of Death (1988) [VoMiT]
    Por McalvinoV en el foro Terror / Horror
    Respuestas: 5
    Último mensaje: 02-05-2016, 19:33:11
  3. Splatter University (1984) [RARBG]
    Por McalvinoV en el foro Terror / Horror
    Respuestas: 5
    Último mensaje: 03-02-2016, 18:53:36
  4. Conan The Barbarian (2011) [CHD] 720p
    Por Neokyo en el foro Aventuras / Familia HD (+)
    Respuestas: 19
    Último mensaje: 01-12-2012, 10:21:57
  5. Conan the Destroyer (1984) [RARBG]
    Por McalvinoV en el foro Aventuras / Familia (+)
    Respuestas: 10
    Último mensaje: 11-11-2011, 12:21:15

Miembros que han leído este tema: 8

Permisos de publicación

  • No puedes crear nuevos temas
  • No puedes responder temas
  • No puedes subir archivos adjuntos
  • No puedes editar tus mensajes
  •