Resultados 1 al 6 de 6

Tema: Koirat eivät käytä housuja / Dogs Don't Wear Pants (2019) [ylnian] 1080p

  1. #1
    Adicto Avatar de Atreides
    Fecha de ingreso
    21-02-2010
    Ubicación
    Santiago
    Mensajes
    195
    Agradecimientos: 146

    Finlandia Koirat eivät käytä housuja / Dogs Don't Wear Pants (2019) [ylnian] 1080p

    Koirat eivät käytä housuja (2019)
    Sinopsis:
    Juha desarrolla una inesperada pero poderosa conexión con una dominatrix llamada Mona después de sufrir un incidente traumático que la deja paralizada a nivel emocional. Su peligrosa adicción al sofoco recibe una plácida contestación por parte de Mona, que lleva a su nueva compañera hacia la iluminación espiritual a través de un camino salvaje y alocado.
    Datos Película:
    Director: J-P Valkeapää.
    Reparto: Krista Kosonen, Pekka Strang, Oona Airola, Iiris Anttila, Antons Baronskis, Armands Bergis, Amos Brotherus, Marat Efendijev, Laine Kate Ertmane, Aleksandrs Garins, Ester Geislerova, Ilona Huhta, Viivi Ihalainen, Aleksandrs Jercenko, Sofia Kaipainen, Ellen Karppo, Helmi Lahti, Marta Lapekina, Iveta Medne, Ingrida Nagle, Taio Olsbo, Ludmila Petrova, Andris Reikovskis, Armands Reinis, Genadijs Rusanovs, Tomi Salmela, Samuel Shipway, Eeva Soivio, Zane Ticmane, Ilkka Vanne, Janis Veiksans, Onni Vesikallio, Jani Volanen.
    País: Finlandia.
    Género: Drama.
    Duración: 106 Minutos.
    Más Detalles en Film Affinity
     
    E-links:
    No Disponible
    Torrent / Magnet:
    Bajar Película
    Subtítulos:
    No Disponible
    Descargas Directas:

    MEGA
    https://mega.nz/file/zhxDkIrb#RLMD8yNWJ8dMl6Ok9rL4xCfe1Flh-VEYKGaMruSX1FA
    Última edición por Atreides; 17-06-2020 a las 17:20:46

  2. Los siguientes 11 usuarios agradecen el post de Atreides:


  3. #2
    Adicto Avatar de Atreides
    Fecha de ingreso
    21-02-2010
    Ubicación
    Santiago
    Mensajes
    195
    Agradecimientos: 146

    Predeterminado

    Mediainfo
    General
    Unique ID                                : 234115861285246091602888390524126258215 (0xB0211324294584DFCA89C1658E666427)
    Complete name                            : Koirat.eivat.kayta.housuja.2019.BDRip.1080p-ylnian.mkv
    Format                                   : Matroska
    Format version                           : Version 4
    File size                                : 9.03 GiB
    Duration                                 : 1 h 45 min
    Overall bit rate                         : 12.3 Mb/s
    Movie name                               : Koirat.eivat.kayta.housuja.2019.BDRip.1080p-ylnian
    Encoded date                             : UTC 2020-04-02 07:35:28
    Writing application                      : mkvmerge v44.0.0 ('Domino') 64-bit
    Writing library                          : libebml v1.3.10 + libmatroska v1.5.2
    
    Video
    ID                                       : 1
    Format                                   : AVC
    Format/Info                              : Advanced Video Codec
    Format profile                           : [email protected]
    Format settings                          : CABAC / 5 Ref Frames
    Format settings, CABAC                   : Yes
    Format settings, Reference frames        : 5 frames
    Codec ID                                 : V_MPEG4/ISO/AVC
    Duration                                 : 1 h 45 min
    Bit rate                                 : 10.4 Mb/s
    Width                                    : 1 920 pixels
    Height                                   : 808 pixels
    Display aspect ratio                     : 2.40:1
    Frame rate mode                          : Constant
    Frame rate                               : 24.000 FPS
    Color space                              : YUV
    Chroma subsampling                       : 4:2:0
    Bit depth                                : 8 bits
    Scan type                                : Progressive
    Bits/(Pixel*Frame)                       : 0.279
    Stream size                              : 7.64 GiB (85%)
    Title                                    : Koirat.Eivat.Kayta.Housuja.2019.FiNNiSH.1080p.BluRay.x264-FiCO
    Writing library                          : x264 core 159 r2991 1771b55
    Encoding settings                        : cabac=1 / ref=5 / deblock=1:0:0 / analyse=0x3:0x133 / me=umh / subme=9 / psy=1 / psy_rd=1.00:0.00 / mixed_ref=1 / me_range=16 / chroma_me=1 / trellis=2 / 8x8dct=1 / cqm=0 / deadzone=21,11 / fast_pskip=1 / chroma_qp_offset=-2 / threads=25 / lookahead_threads=2 / sliced_threads=0 / nr=0 / decimate=1 / interlaced=0 / bluray_compat=0 / constrained_intra=0 / bframes=3 / b_pyramid=2 / b_adapt=2 / b_bias=0 / direct=3 / weightb=1 / open_gop=0 / weightp=2 / keyint=250 / keyint_min=24 / scenecut=40 / intra_refresh=0 / rc_lookahead=60 / rc=2pass / mbtree=1 / bitrate=10399 / ratetol=1.0 / qcomp=0.60 / qpmin=0 / qpmax=69 / qpstep=4 / cplxblur=20.0 / qblur=0.5 / ip_ratio=1.40 / aq=1:1.00
    Language                                 : Finnish
    Default                                  : Yes
    Forced                                   : No
    
    Audio #1
    ID                                       : 2
    Format                                   : AC-3
    Format/Info                              : Audio Coding 3
    Commercial name                          : Dolby Digital
    Codec ID                                 : A_AC3
    Duration                                 : 1 h 45 min
    Bit rate mode                            : Constant
    Bit rate                                 : 384 kb/s
    Channel(s)                               : 6 channels
    Channel layout                           : L R C LFE Ls Rs
    Sampling rate                            : 48.0 kHz
    Frame rate                               : 31.250 FPS (1536 SPF)
    Compression mode                         : Lossy
    Stream size                              : 289 MiB (3%)
    Title                                    : MVO - iTunes
    Language                                 : Russian
    Service kind                             : Complete Main
    Default                                  : Yes
    Forced                                   : No
    
    Audio #2
    ID                                       : 3
    Format                                   : DTS
    Format/Info                              : Digital Theater Systems
    Codec ID                                 : A_DTS
    Duration                                 : 1 h 45 min
    Bit rate mode                            : Constant
    Bit rate                                 : 1 509 kb/s
    Channel(s)                               : 6 channels
    Channel layout                           : C L R Ls Rs LFE
    Sampling rate                            : 48.0 kHz
    Frame rate                               : 93.750 FPS (512 SPF)
    Bit depth                                : 24 bits
    Compression mode                         : Lossy
    Stream size                              : 1.11 GiB (12%)
    Language                                 : Finnish
    Default                                  : No
    Forced                                   : No
    
    Text #1
    ID                                       : 4
    Format                                   : UTF-8
    Codec ID                                 : S_TEXT/UTF8
    Codec ID/Info                            : UTF-8 Plain Text
    Duration                                 : 1 h 34 min
    Bit rate                                 : 26 b/s
    Count of elements                        : 426
    Stream size                              : 18.3 KiB (0%)
    Language                                 : Russian
    Default                                  : No
    Forced                                   : No
    
    Text #2
    ID                                       : 5
    Format                                   : UTF-8
    Codec ID                                 : S_TEXT/UTF8
    Codec ID/Info                            : UTF-8 Plain Text
    Duration                                 : 1 h 40 min
    Bit rate                                 : 18 b/s
    Count of elements                        : 463
    Stream size                              : 13.5 KiB (0%)
    Language                                 : Finnish
    Default                                  : No
    Forced                                   : No
    
    Text #3
    ID                                       : 6
    Format                                   : UTF-8
    Codec ID                                 : S_TEXT/UTF8
    Codec ID/Info                            : UTF-8 Plain Text
    Duration                                 : 1 h 40 min
    Bit rate                                 : 30 b/s
    Count of elements                        : 400
    Stream size                              : 22.5 KiB (0%)
    Language                                 : Italian
    Default                                  : No
    Forced                                   : No
    
    Text #4
    ID                                       : 7
    Format                                   : UTF-8
    Codec ID                                 : S_TEXT/UTF8
    Codec ID/Info                            : UTF-8 Plain Text
    Duration                                 : 1 h 40 min
    Bit rate                                 : 14 b/s
    Count of elements                        : 382
    Stream size                              : 10.6 KiB (0%)
    Language                                 : Danish
    Default                                  : No
    Forced                                   : No
    
    Text #5
    ID                                       : 8
    Format                                   : UTF-8
    Codec ID                                 : S_TEXT/UTF8
    Codec ID/Info                            : UTF-8 Plain Text
    Duration                                 : 1 h 40 min
    Bit rate                                 : 14 b/s
    Count of elements                        : 382
    Stream size                              : 10.8 KiB (0%)
    Language                                 : Swedish
    Default                                  : No
    Forced                                   : No
    
    Text #6
    ID                                       : 9
    Format                                   : UTF-8
    Codec ID                                 : S_TEXT/UTF8
    Codec ID/Info                            : UTF-8 Plain Text
    Duration                                 : 1 h 41 min
    Bit rate                                 : 14 b/s
    Count of elements                        : 382
    Stream size                              : 10.6 KiB (0%)
    Language                                 : Norwegian
    Default                                  : No
    Forced                                   : No
    
    Menu
    00:00:00.000                             : fi:Глава 01
    00:08:43.750                             : fi:Глава 02
    00:17:22.458                             : fi:Глава 03
    00:26:01.708                             : fi:Глава 04
    00:34:42.291                             : fi:Глава 05
    00:43:24.166                             : fi:Глава 06
    00:52:08.916                             : fi:Глава 07
    01:01:13.833                             : fi:Глава 08
    01:10:26.708                             : fi:Глава 09
    01:19:20.623                             : fi:Глава 10
    01:27:58.707                             : fi:Глава 11
    Trailer

  4. Los siguientes usuarios agradecen a Atreides por este tema:


  5. #3
    Subtitulador Avatar de Olya
    Fecha de ingreso
    15-02-2014
    Mensajes
    11,436
    Agradecimientos: 10786

    Predeterminado

    Gracias.

  6. Los siguientes usuarios agradecen a Olya por este tema:


  7. #4
    Adicto Sin Retorno Avatar de jodidolunes
    Fecha de ingreso
    09-07-2011
    Ubicación
    Buenos Aires
    Mensajes
    2,773
    Agradecimientos: 1384

    Predeterminado

    Muchas Gracias!


  8. Los siguientes usuarios agradecen a jodidolunes por este tema:


  9. #5
    Adicto Avatar de chopsuey
    Fecha de ingreso
    22-09-2018
    Mensajes
    244
    Agradecimientos: 243

    Predeterminado

    Parece interesante. Gracias @Atreides . Hay un sub en italiano por si sirce a alguien o de base para una futura traduccion

    https://www.opensubtitles.org/en/sub...-wear-pants-it

  10. Los siguientes usuarios agradecen a chopsuey por este tema:


  11. #6
    Subtitulador Avatar de Fernando355
    Fecha de ingreso
    31-10-2012
    Ubicación
    Lima.
    Mensajes
    33,160
    Agradecimientos: 36398

    Predeterminado

    Muchas gracias por la película @Atreides y felicitaciones por la Ficha, te quedó muy bien.

  12. Los siguientes usuarios agradecen a Fernando355 por este tema:


Información de tema

Usuarios viendo este tema

Actualmente hay 1 usuarios viendo este tema. (0 miembros y 1 visitantes)

Temas similares

  1. Dead Men Don't Wear Plaid (1982) [Shoo - AR]
    Por THE. en el foro Comedia (+)
    Respuestas: 4
    Último mensaje: 06-07-2019, 10:54:19
  2. Tenemos la Carne / We Are the Flesh (2016) [ylnian] 1080p
    Por McalvinoV en el foro Aventuras / Familia HD (+)
    Respuestas: 8
    Último mensaje: 01-01-2017, 12:24:35
  3. Good Guys Wear Black (1978)
    Por jquis en el foro Acción (+)
    Respuestas: 1
    Último mensaje: 29-06-2014, 23:54:35
  4. Long Pants (1927)
    Por maximogorki en el foro Comedia (+)
    Respuestas: 0
    Último mensaje: 27-08-2010, 17:05:00
  5. Respuestas: 1
    Último mensaje: 23-02-2010, 01:17:30

Miembros que han leído este tema: 316

Permisos de publicación

  • No puedes crear nuevos temas
  • No puedes responder temas
  • No puedes subir archivos adjuntos
  • No puedes editar tus mensajes
  •