Resultados 1 al 12 de 12

Tema: Across The Universe (2007) [iMBT - YIFY]

  1. #1
    Peligrosamente Adicto Avatar de Enzo
    Fecha de ingreso
    24-01-2010
    Ubicación
    L.A - Conce
    Edad
    31
    Mensajes
    386
    Agradecimientos: 510


    Seguir a Enzo en Twitter Agrega a Enzo en Facebook

    Estados Unidos Across The Universe (2007) [iMBT - YIFY]

    Across The Universe (2007)
    Sinopsis:
    Musical romántico ambientado en los años 60 del siglo XX en la época de los años turbulentos de las protestas contra la guerra, la exploración mental y el rock'n roll. La historia gira en torno a institutos y universidades en Massachusetts, Princeton y Ohio, y se traslada desde los muelles de Liverpool hasta la psicodelia creativa de Greenwich Village en Nueva Cork; desde las calles rasgadas por las revueltas en Detroit, hasta los campos de muerte de Vietnam.
    Datos Película:
    Director: Julie Taymor.
    Reparto: Evan Rachel Wood, Jim Sturgess, Joe Anderson, Bono, Eddie Izzard, Salma Hayek, Dana Fuchs, Cynthia Loebe, Martin Luther.
    País: Estados Unidos.
    Género: Musical, Romance.
    Duración: 133 Minutos.
    Más Detalles en Film Affinity
     
    E-links:
    CD 1
    CD 2
    Torrent / Magnet:
    Bajar Película / YIFY 720p
    Bajar Película / YIFY 1080p
    Subtítulos:
    Bajar Subtítulos en Español / YIFY
    Bajar Subtítulos en Español / IMBT
    Archivos adjuntados Archivos adjuntados
    Última edición por hacu; 23-08-2017 a las 22:06:18 Razón: FICHA ACTUALIZADA

  2. Los siguientes 18 usuarios agradecen el post de Enzo:


  3. #2
    Amigos de SubAdictos Avatar de Marime
    Fecha de ingreso
    27-01-2010
    Ubicación
    Santiago, Chile
    Mensajes
    17,398
    Agradecimientos: 19161

    Predeterminado

    Enzo, te agregué el torrent.

    Aquí está el trailer:



    Info:
    Torrent
    Spoiler:
    SPOILER:
    Across the Universe[2007]DvDrip[Eng]-FXG.avi
    Format : AVI
    Format/Info : Audio Video Interleave
    File size : 699 MiB
    Duration : 2h 13mn
    Overall bit rate : 733 Kbps
    Writing application : VirtualDubMod 1.5.10.2 (build 2540/release)
    Writing library : VirtualDubMod build 2540/release

    Video
    ID : 0
    Format : MPEG-4 Visual
    Format profile : Advanced [email protected]
    Format settings, BVOP : 2
    Format settings, QPel : No
    Format settings, GMC : No warppoints
    Format settings, Matrix : Default (H.263)
    Muxing mode : Packed bitstream
    Codec ID : DX50
    Codec ID/Hint : DivX 5
    Duration : 2h 13mn
    Bit rate : 583 Kbps
    Width : 584 pixels
    Height : 240 pixels
    Display aspect ratio : 2.40:1
    Frame rate : 23.976 fps
    Color space : YUV
    Chroma subsampling : 4:2:0
    Bit depth : 8 bits
    Scan type : Progressive
    Compression mode : Lossy
    Bits/(Pixel*Frame) : 0.174
    Stream size : 556 MiB (80%)
    Writing library : XviD 1.0.3 (UTC 2004-12-20)

    Audio
    ID : 1
    Format : MPEG Audio
    Format version : Version 1
    Format profile : Layer 3
    Mode : Joint stereo
    Mode extension : MS Stereo
    Codec ID : 55
    Codec ID/Hint : MP3
    Duration : 2h 13mn
    Bit rate mode : Constant
    Bit rate : 112 Kbps
    Channel(s) : 2 channels
    Sampling rate : 44.1 KHz
    Compression mode : Lossy
    Stream size : 107 MiB (15%)
    Alignment : Split accross interleaves
    Última edición por THE.; 21-04-2014 a las 13:10:33 Razón: Agregados trailer e info.

  4. #3
    Peligrosamente Adicto Avatar de Enzo
    Fecha de ingreso
    24-01-2010
    Ubicación
    L.A - Conce
    Edad
    31
    Mensajes
    386
    Agradecimientos: 510


    Seguir a Enzo en Twitter Agrega a Enzo en Facebook

    Predeterminado

    Gracias, Marime

  5. #4
    Adicto Sin Retorno Avatar de Neokyo
    Fecha de ingreso
    05-02-2010
    Ubicación
    Sobreviviendo en Buenos Aires!!
    Mensajes
    9,103
    Agradecimientos: 5591

    Predeterminado

    Aver que tal
    gracias por el aporte
    saludos
    “Ñapu-á, Paraguay”

  6. #5
    Adicto Avatar de carivrub
    Fecha de ingreso
    17-04-2010
    Mensajes
    136
    Agradecimientos: 3

    Predeterminado

    muchas gracias por el aporte... muy buena película en su género (musical)... yo diría que se toma como excusa la historia de los protagonistas para hacer un homenaje a the beatles, muy bien hecho por cierto... qué buenas 2 horas de música y nostalgia... recomendada...
    Spoiler:
    SPOILER:
    el montaje de let it be les sallió buenísimo, me conmovió bastante

  7. #6
    Adicto Avatar de guipion
    Fecha de ingreso
    14-05-2010
    Ubicación
    Buenos Aliens
    Edad
    49
    Mensajes
    172
    Agradecimientos: 4


    Agrega a guipion en Facebook

    Argentina

    hola Enzo..soy guille..sólo quería decirte q me encanta el avatar de leche Dharma con el avion "perdido"..nada mas..un abrazo amigo

  8. #7
    Adicto Sin Retorno Avatar de Badrock
    Fecha de ingreso
    16-02-2010
    Ubicación
    En casita :P
    Mensajes
    609
    Agradecimientos: 89


    Agrega a Badrock en Facebook

    Predeterminado

    muy buena pelicula, la bajo de vuelta para ver y guardarla...^^

  9. #8
    Adicto Sin Retorno Avatar de valekiara
    Fecha de ingreso
    04-02-2010
    Mensajes
    601
    Agradecimientos: 22

    Predeterminado

    8/10 musical que me sorprendió gratamente, a quien le haya gustado Moulin Rouge seguro le gustara este también ambientado en los 60’ con todos los temas de los Beatles

  10. #9
    Amigos de SubAdictos Avatar de xene
    Fecha de ingreso
    12-03-2010
    Ubicación
    Ciudad de la Furia
    Edad
    34
    Mensajes
    4,386
    Agradecimientos: 1219

    Predeterminado

    Imperdible para aquellos que nos gusta los Beatles, excelente banda de sonido y muy buena película.
    Alternativa a los enlaces de Descarga Directa, aprende a descargar con uTorrent y Emule.


    Como no somos los únicos, decidimos ser los mejores.

  11. #10
    Adicto Sin Retorno Avatar de barju
    Fecha de ingreso
    25-05-2010
    Ubicación
    buenos aires
    Mensajes
    2,348
    Agradecimientos: 374

    Predeterminado

    hace tiempo q la tengo agendada y tambien olvidada... voy x ella... gracias chicos!!!!

  12. #11
    Adicto Sin Retorno Avatar de THE.
    Fecha de ingreso
    16-03-2011
    Ubicación
    En la Oficina
    Edad
    41
    Mensajes
    5,861
    Agradecimientos: 4335

    Predeterminado

    Eliminadas DDs Offline, cambiado torrent offline por magnet y subs correspondientes, agregados trailer e info en el 2° mensaje

    Saludos Enzo.

    Se parte activa del foro.
    Comenta, agradece y comparte.
    (No seas un "Leecher", se un "Seeder")

  13. #12
    Adicto Avatar de Josele Panto
    Fecha de ingreso
    08-04-2013
    Ubicación
    Barcelona
    Mensajes
    232
    Agradecimientos: 39

    Predeterminado

    Hola, estoy tratando de bajar "Across the universe" pero se estanca. Podría estar disponible de nuevo? Gracias.

Información de tema

Usuarios viendo este tema

Actualmente hay 1 usuarios viendo este tema. (0 miembros y 1 visitantes)

Temas similares

  1. P.S. I Love You (2007) [iMBT/aXXo]
    Por Enzo en el foro Romance (+)
    Respuestas: 17
    Último mensaje: 02-04-2020, 19:56:55
  2. The Nanny Diaries (2007) [iMBT]
    Por the darkness en el foro Comedia (+)
    Respuestas: 5
    Último mensaje: 30-06-2013, 10:56:24
  3. Talk To Me (2007) [EPiC - iMBT]
    Por the darkness en el foro Drama (+)
    Respuestas: 3
    Último mensaje: 29-06-2013, 13:01:38
  4. Delta Farce (2007) [iMBT]
    Por japezoa en el foro Comedia (+)
    Respuestas: 1
    Último mensaje: 14-03-2012, 13:54:58

Miembros que han leído este tema: 19

Permisos de publicación

  • No puedes crear nuevos temas
  • No puedes responder temas
  • No puedes subir archivos adjuntos
  • No puedes editar tus mensajes
  •