Resultados 1 al 2 de 2

Tema: Kotirauha / Life for Sale (2011) [FiCO]

  1. #1
    Administrador Avatar de McalvinoV
    Fecha de ingreso
    20-02-2010
    Ubicación
    Panamanicomio
    Edad
    43
    Mensajes
    148,463
    Agradecimientos: 161045

    Finlandia Kotirauha / Life for Sale (2011) [FiCO]

    Kotirauha / Life for Sale (2011)
    Sinopsis:
    Sami Luoto es un hombre de familia de unos cuarenta años con un sueño secreto. Él quiere tener éxito como su padre y construir una casa de lujo para él, su esposa y su hija adolescente.
    Datos Película:
    Director: Aleksi Mäkelä.
    Reparto: Samuli Edelmann, Katariina Kaitue and Santeri Kinnunen.
    País: Finlandia.
    Género: Drama, Thriller.
    Duración: 101 Minutos.
     
    Más Detalles en NordSubAdictos
    E-links:
    No Disponible
    Torrent / Magnet:
    Bajar Película
    Subtítulos:
    Bajar Subtítulos en Inglés
    Archivos adjuntados Archivos adjuntados
    Última edición por mcozeti; 04-10-2017 a las 15:55:04


  2. Los siguientes 4 usuarios agradecen el post de McalvinoV:


  3. #2
    Administrador Avatar de McalvinoV
    Fecha de ingreso
    20-02-2010
    Ubicación
    Panamanicomio
    Edad
    43
    Mensajes
    148,463
    Agradecimientos: 161045

    Predeterminado

    CoaXCPH
    
    Team FiCO Final Coalition 2k8 Presents:
    
    Life.For.Sale.2011.DVDRip.XviD-FiCO
     
    http://www.imdb.com/title/tt1715827
    Subtitles: English
    Date: 2012.04
    
    Drama  Thriller
    
    Stats
    General
    Format                                   : AVI
    Format/Info                              : Audio Video Interleave
    File size                                : 1.36 GiB
    Duration                                 : 1h 41mn
    Overall bit rate                         : 1 920 Kbps
    Writing application                      : VirtualDubMod 1.5.10.2 (build 2540/release
    Writing library                          : VirtualDubMod build 2540/release
    
    Video
    ID                                       : 0
    Format                                   : MPEG-4 Visual
    Format profile                           : Advanced SimpleL5
    Format settings, BVOP                    : 2
    Format settings, QPel                    : No
    Format settings, GMC                     : No warppoints
    Format settings, Matrix                  : Default (H.263
    Muxing mode                              : Packed bitstream
    Codec ID                                 : XVID
    Codec ID/Hint                            : XviD
    Duration                                 : 1h 41mn
    Bit rate                                 : 1 459 Kbps
    Width                                    : 640 pixels
    Height                                   : 272 pixels
    Display aspect ratio                     : 2.35:1
    Frame rate                               : 25.000 fps
    Color space                              : YUV
    Chroma subsampling                       : 4:2:0
    Bit depth                                : 8 bits
    Scan type                                : Progressive
    Compression mode                         : Lossy
    Bits/(PixelFrame)                       : 0.335
    Stream size                              : 1.04 GiB (76
    Writing library                          : XviD 64
    
    Audio
    ID                                       : 1
    Format                                   : AC-3
    Format/Info                              : Audio Coding 3
    Mode extension                           : CM (complete main
    Codec ID                                 : 2000
    Duration                                 : 1h 41mn
    Bit rate mode                            : Constant
    Bit rate                                 : 448 Kbps
    Channel(s)                               : 6 channels
    Channel positions                        : Front: L C R, Side: L R, LFE
    Sampling rate                            : 48.0 KHz
    Bit depth                                : 16 bits
    Compression mode                         : Lossy
    Stream size                              : 326 MiB (23
    Alignment                                : Split accross interleaves
    Interleave, duration                     : 40 ms (1.00 video frame
    Interleave, preload duration             : 500 ms
    
    Release notes
    enjoy
    
    Greetz from Team FiCO:
    
    BLooDWeiSeR,CULTXviD,SiCK,DoNE,LAP,TH30R1STS
    
    WinBeta, DvF, WASTE, BERC, KALEVALA, Jiggly
    
    you know where to find us...
    
    NFO By: CoaXCable/CoolPHat #CPH
    Subpack (Ingles)
    http://netload.in/dateiQ0gkveTMlw.htm
    Última edición por McalvinoV; 11-05-2012 a las 20:32:14

Información de tema

Usuarios viendo este tema

Actualmente hay 1 usuarios viendo este tema. (0 miembros y 1 visitantes)

Temas similares

  1. Death for Sale / Mort à vendre (2011) [Unknown]
    Por pepe2982 en el foro Drama (+)
    Respuestas: 3
    Último mensaje: 01-09-2015, 15:08:50
  2. Bambieffekten (2011) [FiCO]
    Por McalvinoV en el foro Drama (+)
    Respuestas: 2
    Último mensaje: 21-05-2015, 19:09:22
  3. Respuestas: 1
    Último mensaje: 08-02-2014, 13:38:26
  4. Let Go (2011) [FiCO]
    Por the darkness en el foro Comedia
    Respuestas: 1
    Último mensaje: 04-06-2013, 23:54:54
  5. Prime of Your Life (2010) [FiCO]
    Por McalvinoV en el foro Romance
    Respuestas: 0
    Último mensaje: 14-08-2011, 21:50:14

Miembros que han leído este tema: 4

Permisos de publicación

  • No puedes crear nuevos temas
  • No puedes responder temas
  • No puedes subir archivos adjuntos
  • No puedes editar tus mensajes
  •