Resultados 1 al 3 de 3

Tema: Sønner av Norge / Sons of Norway (2011)

  1. #1
    Subtitulador Avatar de sirxevi
    Fecha de ingreso
    03-04-2012
    Mensajes
    783
    Agradecimientos: 3047

    Noruega Sønner av Norge / Sons of Norway (2011)

    Sønner av Norge / Sons of Norway (2011)
    Sinopsis:
    Años 70. Rykkinn, Noruega. La escena punk está en plena expansión, igual que la curiosidad de Nikolaj, que quiere rebelarse contra el sistema. Algo, por otro lado, que no le resultará nada fácil teniendo en cuenta que su padre, hippie y librepensador, quiere ser cómplice de todo lo que haga.
    Datos Película:
    Director: Jens Lien.
    Reparto: Sven Nordin, Åsmund Høeg, Sonja Richter, Trond Nilssen, John Lydon.
    País: Noruega.
    Género: Drama, Comedia, Familia, Años 70.
    Duración: 87 Minutos.
    Más Detalles en Film Affinity
     
    Más Detalles en NordSubAdictos
    E-links:
    Bajar Película
    Torrent / Magnet:
    Bajar Película
    Subtítulos:
    Español
    Última edición por sirxevi; 16-11-2013 a las 17:18:28 Razón: Agregar afiche

  2. Los siguientes 11 usuarios agradecen el post de sirxevi:


  3. #2
    Subtitulador Avatar de sirxevi
    Fecha de ingreso
    03-04-2012
    Mensajes
    783
    Agradecimientos: 3047

    Predeterminado

    Tráiler:

    ERROR: If you can see this, then YouTube is down or you don't have Flash installed.



    Información:
    Spoiler:
    SPOILER:
    General
    Complete name : Sønner av Norge (2011).[Jens Lien].[NORWEGiAN.AC3.DVDRip.XviD-Svennen1234].avi
    Format : AVI
    Format/Info : Audio Video Interleave
    File size : 1.37 GiB
    Duration : 1h 24mn
    Overall bit rate : 2 323 Kbps
    Writing application : FairUse Wizard - http://fairusewizard.com
    Writing library : The best and REALLY easy backup tool

    Video
    ID : 0
    Format : MPEG-4 Visual
    Format profile : Advanced [email protected]
    Format settings, BVOP : 1
    Format settings, QPel : No
    Format settings, GMC : No warppoints
    Format settings, Matrix : Default (MPEG)
    Muxing mode : Packed bitstream
    Codec ID : XVID
    Codec ID/Hint : XviD
    Duration : 1h 24mn
    Bit rate : 1 866 Kbps
    Width : 704 pixels
    Height : 288 pixels
    Display aspect ratio : 2.40:1
    Frame rate : 25.000 fps
    Color space : YUV
    Chroma subsampling : 4:2:0
    Bit depth : 8 bits
    Scan type : Progressive
    Compression mode : Lossy
    Bits/(Pixel*Frame) : 0.368
    Stream size : 1.10 GiB (80%)
    Writing library : XviD 1.2.0.dev47 (UTC 2006-11-01)

    Audio
    ID : 1
    Format : AC-3
    Format/Info : Audio Coding 3
    Mode extension : CM (complete main)
    Format settings, Endianness : Big
    Codec ID : 2000
    Duration : 1h 24mn
    Bit rate mode : Constant
    Bit rate : 448 Kbps
    Channel(s) : 6 channels
    Channel positions : Front: L C R, Side: L R, LFE
    Sampling rate : 48.0 KHz
    Bit depth : 16 bits
    Compression mode : Lossy
    Stream size : 270 MiB (19%)
    Alignment : Split accross interleaves
    Interleave, duration : 40 ms (1.00 video frame)
    Interleave, preload duration : 500 ms
    Última edición por sirxevi; 16-11-2013 a las 17:42:18 Razón: Agregar Información

  4. #3
    Adicto Sin Retorno Avatar de nreconquista
    Fecha de ingreso
    19-05-2011
    Ubicación
    Hurlingham y en cuarentena
    Mensajes
    756
    Agradecimientos: 502

    Predeterminado

    Gracias sirxevi, la tenía pendiente para bajar desde hace rato

Información de tema

Usuarios viendo este tema

Actualmente hay 1 usuarios viendo este tema. (0 miembros y 1 visitantes)

Temas similares

  1. Sons Of Anarchy: 2ª. Temporada (2008 - 2014) (+)
    Por japezoa en el foro Temporadas Finalizadas
    Respuestas: 14
    Último mensaje: 26-04-2020, 17:40:15
  2. Sons Of Anarchy: 3ª. Temporada (2008 - 2014) (+)
    Por japezoa en el foro Temporadas Finalizadas
    Respuestas: 58
    Último mensaje: 04-03-2018, 12:26:54
  3. Sønner / Sons (2006)
    Por gallia en el foro Drama (+)
    Respuestas: 8
    Último mensaje: 22-05-2015, 09:53:37
  4. Four Sons (1928)
    Por gallia en el foro Drama (+)
    Respuestas: 3
    Último mensaje: 30-08-2014, 01:59:02
  5. Sons Of Anarchy: 1ª. Temporada (2008 - 2014) (+)
    Por japezoa en el foro Temporadas Finalizadas
    Respuestas: 25
    Último mensaje: 07-08-2014, 12:07:48

Miembros que han leído este tema: 5

Permisos de publicación

  • No puedes crear nuevos temas
  • No puedes responder temas
  • No puedes subir archivos adjuntos
  • No puedes editar tus mensajes
  •