Resultados 1 al 2 de 2

Tema: Frit fald / Rebounce (2011)

  1. #1
    Subtitulador Avatar de sirxevi
    Fecha de ingreso
    03-04-2012
    Mensajes
    783
    Agradecimientos: 3072

    Dinamarca Frit fald / Rebounce (2011)

    Frit fald / Rebounce (2011)
    Sinopsis:
    La madre de Louise acaba de salir de la cárcel. La adolescente ve en ella a una mujer dura y fría, pero también seductora. Para ganar su cariño, se deja guiar por ella y entra en un mundo de fiestas, drogas, dinero fácil y relaciones con hombres. Entretanto nadie parece tener presente que Louise es menor de edad.
    Datos Película:
    Director: Heidi Maria Faisst.
    Reparto: Frederikke Dahl Hansen, Anne Sofie Espersen, Kirsten Olesen, Niels Skousen, Dar Salim, David Dencik, Marco Ilsø, Coco Hjardemaal.
    País: Dinamarca.
    Género: Drama, Adolescencia.
    Duración: 90 Minutos.
    Más Detalles en Film Affinity
     
    Más Detalles en NordSubAdictos
    E-links:
    Bajar Película
    Torrent / Magnet:
    Bajar Película
    Subtítulos:
    Español
    Última edición por sirxevi; 16-11-2013 a las 17:20:11 Razón: Agregar afiche

  2. Los siguientes 9 usuarios agradecen el post de sirxevi:


  3. #2
    Subtitulador Avatar de sirxevi
    Fecha de ingreso
    03-04-2012
    Mensajes
    783
    Agradecimientos: 3072

    Predeterminado

    Tráiler:

    ERROR: If you can see this, then YouTube is down or you don't have Flash installed.



    Información:
    Spoiler:
    SPOILER:
    General
    Complete name : Frit Fald (2011).[Heidi Maria Faisst].avi
    Format : AVI
    Format/Info : Audio Video Interleave
    File size : 697 MiB
    Duration : 1h 31mn
    Overall bit rate mode : Variable
    Overall bit rate : 1 061 Kbps
    Writing application : VirtualDubMod 1.5.10.2 (build 2540/release) VirtualDubMod build 2540/release

    Video
    ID : 0
    Format : MPEG-4 Visual
    Format profile : Advanced [email protected]
    Format settings, BVOP : 2
    Format settings, QPel : No
    Format settings, GMC : No warppoints
    Format settings, Matrix : Default (H.263)
    Muxing mode : Packed bitstream
    Codec ID : XVID
    Codec ID/Hint : XviD
    Duration : 1h 31mn
    Bit rate : 918 Kbps
    Width : 608 pixels
    Height : 320 pixels
    Display aspect ratio : 1.900
    Frame rate : 25.000 fps
    Color space : YUV
    Chroma subsampling : 4:2:0
    Bit depth : 8 bits
    Scan type : Progressive
    Compression mode : Lossy
    Bits/(Pixel*Frame) : 0.189
    Stream size : 603 MiB (86%)
    Writing library : XviD 64

    Audio
    ID : 1
    Format : MPEG Audio
    Format version : Version 1
    Format profile : Layer 3
    Mode : Joint stereo
    Codec ID : 55
    Codec ID/Hint : MP3
    Duration : 1h 31mn
    Bit rate mode : Variable
    Bit rate : 128 Kbps
    Channel(s) : 2 channels
    Sampling rate : 48.0 KHz
    Compression mode : Lossy
    Stream size : 85.7 MiB (12%)
    Alignment : Aligned on interleaves
    Interleave, duration : 24 ms (0.60 video frame)
    Interleave, preload duration : 141 ms
    Writing library : LAME3.90.
    Encoding settings : -m j -V 4 -q 2 -lowpass 17.6 --abr 128
    Última edición por sirxevi; 16-11-2013 a las 17:36:14 Razón: Agregar Información

Información de tema

Usuarios viendo este tema

Actualmente hay 1 usuarios viendo este tema. (0 miembros y 1 visitantes)

Miembros que han leído este tema: 6

Permisos de publicación

  • No puedes crear nuevos temas
  • No puedes responder temas
  • No puedes subir archivos adjuntos
  • No puedes editar tus mensajes
  •