Resultados 1 al 4 de 4

Tema: Blå mænd / Take the Trash (2008)

  1. #1
    Subtitulador Avatar de sirxevi
    Fecha de ingreso
    03-04-2012
    Mensajes
    783
    Agradecimientos: 3094

    Dinamarca Blå mænd / Take the Trash (2008)

    Blå mænd / Take the Trash (2008)
    Sinopsis:
    Jesper es un brillante comercial en informática que no cederá ante nada ni nadie para convertirse en el número uno. Tiene una guapa mujer y una preciosa casa y su vida de postal parece perfecta. Hasta que un día su arrogancia provoque su caída y lo pierda todo del día a la mañana. Jesper es condenado a realizar servicios para la comunidad en una planta de reciclaje, junto a personas a las que considera inferiores. Le acompañan Theodore, el jefe de la planta, que no tiene pelos en la lengua, Lotte, una lesbiana que se pasa el día soñando despierta, y Dion, que siempre deja lo que puede hacer hoy para mañana. Poco a poco, Jesper se va acostumbrando a ensuciarse las manos, conoce a una chica y se da cuenta de que cuanto más sencilla es su vida, más sentido tiene. Sin embargo, cuando la planta se vea amenazada de cierre, Jesper tendrá que luchar por una gran causa: ayudar a sus nuevos amigos.
    Datos Película:
    Director: Rasmus Heide.
    Reparto: Thure Lindhardt, Sidse Babett Knudsen, Mick Øgendahl, Troels Lyby, Helle Fagralid, Per Rosenberg, Maibritt Saerens, Claes Bang, Søren Malling, Beate Bille, Kim Kold.
    País: Dinamarca.
    Género: Comedia.
    Duración: 80 Minutos.
    Más Detalles en Film Affinity
     
    Más Detalles en NordSubAdictos
    E-links:
    Bajar Película
    Torrent / Magnet:
    Bajar Película
    Subtítulos:
    Español
    Última edición por sirxevi; 16-11-2013 a las 17:20:33 Razón: Agregar afiche

  2. Los siguientes 14 usuarios agradecen el post de sirxevi:


  3. #2
    Subtitulador Avatar de sirxevi
    Fecha de ingreso
    03-04-2012
    Mensajes
    783
    Agradecimientos: 3094

    Predeterminado

    Tráiler:

    ERROR: If you can see this, then YouTube is down or you don't have Flash installed.



    Información:
    Spoiler:
    SPOILER:
    General
    Complete name : Blå Mænd (2008).[Rasmus Heide].[DANISH.DVDRip.XviD-GGW].avi
    Format : AVI
    Format/Info : Audio Video Interleave
    File size : 699 MiB
    Duration : 1h 19mn
    Overall bit rate mode : Variable
    Overall bit rate : 1 233 Kbps
    Writing application : VirtualDubMod 1.5.10.2 (build 2540/release)
    Writing library : VirtualDubMod build 2540/release

    Video
    ID : 0
    Format : MPEG-4 Visual
    Format profile : Advanced [email protected]
    Format settings, BVOP : 2
    Format settings, QPel : No
    Format settings, GMC : No warppoints
    Format settings, Matrix : Default (H.263)
    Muxing mode : Packed bitstream
    Codec ID : XVID
    Codec ID/Hint : XviD
    Duration : 1h 19mn
    Bit rate : 1 090 Kbps
    Width : 672 pixels
    Height : 336 pixels
    Display aspect ratio : 2.000
    Frame rate : 25.000 fps
    Color space : YUV
    Chroma subsampling : 4:2:0
    Bit depth : 8 bits
    Scan type : Progressive
    Compression mode : Lossy
    Bits/(Pixel*Frame) : 0.193
    Stream size : 618 MiB (88%)
    Writing library : XviD 1.2.1 (UTC 2008-12-04)

    Audio
    ID : 1
    Format : MPEG Audio
    Format version : Version 1
    Format profile : Layer 3
    Mode : Joint stereo
    Mode extension : MS Stereo
    Codec ID : 55
    Codec ID/Hint : MP3
    Duration : 1h 19mn
    Bit rate mode : Variable
    Bit rate : 128 Kbps
    Channel(s) : 2 channels
    Sampling rate : 48.0 KHz
    Compression mode : Lossy
    Stream size : 74.1 MiB (11%)
    Alignment : Aligned on interleaves
    Interleave, duration : 24 ms (0.60 video frame)
    Interleave, preload duration : 524 ms
    Writing library : LAME3.90.
    Encoding settings : -m j -V 4 -q 2 -lowpass 17.6 --abr 128
    Última edición por sirxevi; 16-11-2013 a las 17:33:05 Razón: Agregar Información

  4. #3
    Subtitulador Avatar de federicio
    Fecha de ingreso
    13-04-2012
    Ubicación
    Provincia de Bs. As.
    Mensajes
    14,067
    Agradecimientos: 19197

    Predeterminado

    muchas gracias sirxevi...
    la presencia de Sidse Babett Knudsen siempre es garantía de trabajo muy profesional..
    después te paso la factura por los discos rígidos nuevos..!

  5. #4
    Adicto Sin Retorno Avatar de LoreMathison
    Fecha de ingreso
    21-09-2013
    Ubicación
    Ahora en el Azul Profundo
    Mensajes
    1,205
    Agradecimientos: 579


    Agrega a LoreMathison en Facebook

    Predeterminado

    nunca imagine a Sidse (la increible Birgitte) en otra comedia, esta me la bajo ya mismo, a ver si la puedo ver hoy...muchas gracias sirxevi...

Temas similares

  1. Trash Humpers (2009)
    Por McalvinoV en el foro Drama (+)
    Respuestas: 17
    Último mensaje: 23-01-2017, 20:05:08
  2. Sandheden om mænd / Truth About Men (2010)
    Por pepe2982 en el foro Comedia (+)
    Respuestas: 5
    Último mensaje: 29-07-2015, 15:00:32
  3. Trash (2014)
    Por the darkness en el foro Aventuras / Familia (+)
    Respuestas: 6
    Último mensaje: 25-05-2015, 03:17:41
  4. Trash (2014)
    Por the darkness en el foro Aventuras / Familia (+)
    Respuestas: 11
    Último mensaje: 16-05-2015, 14:53:08
  5. Street Trash (1987)
    Por luisIreneo en el foro Terror / Horror (+)
    Respuestas: 7
    Último mensaje: 21-05-2014, 19:54:54

Miembros que han leído este tema: 3

Permisos de publicación

  • No puedes crear nuevos temas
  • No puedes responder temas
  • No puedes subir archivos adjuntos
  • No puedes editar tus mensajes
  •