Resultados 1 al 2 de 2

Tema: Ulvepigen Tinke / Little Big Girl (2002)

  1. #1
    Subtitulador Avatar de sirxevi
    Fecha de ingreso
    03-04-2012
    Mensajes
    783
    Agradecimientos: 3052

    Dinamarca Ulvepigen Tinke / Little Big Girl (2002)

    Ulvepigen Tinke / Little Big Girl (2002)
    Sinopsis:
    Cuando Laurus, un niño pastor encuentra a Tinke, una niña salvaje decide llevarla a la granja para la que trabaja. Tinke vive sola y sin protección porque sus padres murieron. Al principio Nana, la patrona de Laurus, acoge a Tinke con gran alegría, ya que ésta representa la hija que quiso tener. Sin embargo el carácter libre y rebelde de Tinke hace que Søren, el patrón quiera llevar a la pequeña a las autoridades. Tras muchas vicisitudes se descubre que Tinke es la nieta de uno de los habitantes más ricos de la zona. Sin embargo su aceptación en la familia no será tan sencilla como pueda parecer al principio, ya que la madre de Tinke abandonó el domicilio familiar al oponerse a los deseos de su padre.
    Película está basada en la novela: La niña hambrienta de Cecil Bødker.
    Datos Película:
    Director: Morten Køhlert.
    Reparto: Sarah Juel Werner, Peter Jeppe Hansen, Lisbet Dahl, Erik Wedersøe, Birthe Neumann, Bent Mejding, Jonas Oscarsson, Kjeld Nørgaard, Arne Anton Faxhøj, Karin Rørbeck.
    País: Dinamarca.
    Género: Drama.
    Duración: 93 Minutos.
     
    Más Detalles en NordSubAdictos
    E-links:
    Bajar Película
    Torrent / Magnet:
    Bajar Película
    Subtítulos:
    Español
    Última edición por sirxevi; 25-11-2013 a las 17:21:54 Razón: Agregar afiche

  2. Los siguientes 10 usuarios agradecen el post de sirxevi:


  3. #2
    Subtitulador Avatar de sirxevi
    Fecha de ingreso
    03-04-2012
    Mensajes
    783
    Agradecimientos: 3052

    Predeterminado

    Tráiler:

    ERROR: If you can see this, then YouTube is down or you don't have Flash installed.


    Información:
    Spoiler:
    SPOILER:
    General
    Complete name : Ulvepigen Tinke (2002).[Morten Køhlert].avi
    Format : AVI
    Format/Info : Audio Video Interleave
    File size : 699 MiB
    Duration : 1h 29mn
    Overall bit rate mode : Variable
    Overall bit rate : 1 094 Kbps
    Writing application : Nandub v1.0rc2
    Writing library : Nandub build 1852/release

    Video
    ID : 0
    Format : MPEG-4 Visual
    Format settings, BVOP : 1
    Format settings, QPel : No
    Format settings, GMC : 2 warppoints
    Format settings, Matrix : Default (H.263)
    Muxing mode : Packed bitstream
    Codec ID : DX50
    Codec ID/Hint : DivX 5
    Duration : 1h 29mn
    Bit rate : 954 Kbps
    Width : 544 pixels
    Height : 288 pixels
    Display aspect ratio : 1.889
    Frame rate : 25.000 fps
    Color space : YUV
    Chroma subsampling : 4:2:0
    Bit depth : 8 bits
    Scan type : Progressive
    Compression mode : Lossy
    Bits/(Pixel*Frame) : 0.244
    Stream size : 609 MiB (87%)
    Writing library : DivX 5.0.2 (UTC 2002-05-16)

    Audio
    ID : 1
    Format : MPEG Audio
    Format version : Version 1
    Format profile : Layer 3
    Mode : Joint stereo
    Mode extension : MS Stereo
    Codec ID : 55
    Codec ID/Hint : MP3
    Duration : 1h 29mn
    Bit rate mode : Variable
    Bit rate : 128 Kbps
    Channel(s) : 2 channels
    Sampling rate : 48.0 KHz
    Compression mode : Lossy
    Stream size : 81.4 MiB (12%)
    Alignment : Aligned on interleaves
    Interleave, duration : 24 ms (0.60 video frame)
    Interleave, preload duration : 138 ms
    Writing library : LAME3.93a
    Encoding settings : -m j -V 4 -q 2 -lowpass 17.5 --abr 128
    Última edición por sirxevi; 25-11-2013 a las 17:42:51 Razón: Agregar Información

Información de tema

Usuarios viendo este tema

Actualmente hay 1 usuarios viendo este tema. (0 miembros y 1 visitantes)

Temas similares

  1. The Girl Next Door / Jack Ketchum's the Girl Next Door (2007)
    Por McalvinoV en el foro Thriller / Crimen (+)
    Respuestas: 10
    Último mensaje: 10-10-2019, 17:33:11
  2. Respuestas: 11
    Último mensaje: 14-03-2016, 19:00:54
  3. The Good Girl (2002)
    Por Marime en el foro Drama (+)
    Respuestas: 3
    Último mensaje: 20-08-2015, 13:38:02
  4. What a Girl Wants (2003)
    Por McalvinoV en el foro Comedia (+)
    Respuestas: 3
    Último mensaje: 10-12-2013, 13:12:08
  5. Tank Girl (1995)
    Por ziparunio en el foro Sci-Fi (+)
    Respuestas: 8
    Último mensaje: 02-02-2013, 20:49:15

Miembros que han leído este tema: 5

Permisos de publicación

  • No puedes crear nuevos temas
  • No puedes responder temas
  • No puedes subir archivos adjuntos
  • No puedes editar tus mensajes
  •