Resultados 1 al 2 de 2

Tema: Vanvittig Forelsket / Love and Rage (2009)

  1. #1
    Subtitulador Avatar de sirxevi
    Fecha de ingreso
    03-04-2012
    Mensajes
    1,042
    Agradecimientos: 3024

    Dinamarca Vanvittig Forelsket / Love and Rage (2009)

    Vanvittig Forelsket / Love and Rage (2009)
    Sinopsis:
    Daniel es un estudiante de música con muchísimo talento que quiere empezar a hacerse un hueco en la escena internacional. Se enamora de Sofie y se van a vivir juntos, por primera vez la vida de Daniel es algo más que la música. Planean ir a Nueva York, pero conforme Daniel se enamora más y más de Sofie, los celos empiezan a consumirle. La desconfianza crece poco a poco en su interior y consigue sacar un parte muy peligrosa de su personalidad.
    Datos Película:
    Director: Morten Giese.
    Reparto: Rasmus Botoft, Hans Henrik Clemensen, Dejan Cukic, David Dencik, Charlotte Fich, Benjamin Hasselflug Katzmann, Sara Hjort Ditlevsen.
    País: Dinamarca.
    Género: Drama.
    Duración: 94 Minutos.
     
    Más Detalles en NordSubAdictos
    E-links:
    Bajar Película
    Torrent / Magnet:
    Bajar Película
    Subtítulos:
    Bajar Subtítulos en Español
    Última edición por sirxevi; 25-11-2013 a las 17:32:01 Razón: Agregar afiche

  2. Los siguientes 11 usuarios agradecen el post de sirxevi:


  3. #2
    Subtitulador Avatar de sirxevi
    Fecha de ingreso
    03-04-2012
    Mensajes
    1,042
    Agradecimientos: 3024

    Predeterminado

    Información:
    Spoiler:
    SPOILER:
    General
    Complete name : Vanvittig Forelsket (2009).[Morten Giese].avi
    Format : AVI
    Format/Info : Audio Video Interleave
    File size : 699 MiB
    Duration : 1h 34mn
    Overall bit rate : 1 031 Kbps
    Writing application : transcode-1.1.4

    Video
    ID : 0
    Format : MPEG-4 Visual
    Format profile : Advanced [email protected]
    Format settings, BVOP : 1
    Format settings, QPel : No
    Format settings, GMC : No warppoints
    Format settings, Matrix : Default (H.263)
    Codec ID : XVID
    Codec ID/Hint : XviD
    Duration : 1h 34mn
    Bit rate : 893 Kbps
    Width : 640 pixels
    Height : 352 pixels
    Display aspect ratio : 16:9
    Frame rate : 25.000 fps
    Color space : YUV
    Chroma subsampling : 4:2:0
    Bit depth : 8 bits
    Scan type : Progressive
    Compression mode : Lossy
    Bits/(Pixel*Frame) : 0.159
    Stream size : 606 MiB (87%)
    Writing library : XviD 1.1.2 (UTC 2006-11-01)

    Audio
    ID : 1
    Format : MPEG Audio
    Format version : Version 1
    Format profile : Layer 3
    Mode : Joint stereo
    Mode extension : MS Stereo
    Codec ID : 55
    Codec ID/Hint : MP3
    Duration : 1h 34mn
    Bit rate mode : Constant
    Bit rate : 128 Kbps
    Channel(s) : 2 channels
    Sampling rate : 44.1 KHz
    Compression mode : Lossy
    Stream size : 86.8 MiB (12%)
    Alignment : Split accross interleaves
    Interleave, duration : 40 ms (1.00 video frame)
    Writing library : LAME
    Última edición por sirxevi; 25-11-2013 a las 17:42:13

Información de tema

Usuarios viendo este tema

Actualmente hay 1 usuarios viendo este tema. (0 miembros y 1 visitantes)

Temas similares

  1. The Rage (2007) [iNTiMID - RARBG]
    Por the darkness en el foro Terror / Horror (+)
    Respuestas: 10
    Último mensaje: 16-08-2018, 09:52:55
  2. Tv Rage - Tv Maze
    Por Drako13 en el foro Foro Abierto
    Respuestas: 0
    Último mensaje: 19-09-2015, 18:27:36
  3. Silent Rage (1982)
    Por jquis en el foro Acción (+)
    Respuestas: 2
    Último mensaje: 30-06-2014, 22:49:46
  4. Rage (2009) [MisFitZ]
    Por McalvinoV en el foro Drama
    Respuestas: 1
    Último mensaje: 19-04-2012, 15:27:36

Miembros que han leído este tema: 4

Permisos de publicación

  • No puedes crear nuevos temas
  • No puedes responder temas
  • No puedes subir archivos adjuntos
  • No puedes editar tus mensajes
  •