Resultados 1 al 8 de 8

Tema: Klassefesten / The Reunion (2011)

  1. #1
    Subtitulador Avatar de sirxevi
    Fecha de ingreso
    03-04-2012
    Mensajes
    1,042
    Agradecimientos: 3011

    Dinamarca Klassefesten / The Reunion (2011)

    Klassefesten / The Reunion (2011)
    Sinopsis:
    Tres amigos de la escuela secundaria, Niels (Nicolaj Kopernikus), Andreas (Anders W. Berthelsen) y Thomas (Troels Lyby), quedan para celebrar el aniversario de su graduación. En realidad, Niels y Andreas no querían participar, pero Thomas ha organizado un gran fin de semana con bebidas, mujeres y baños de vapor. ¿Sobrevivirán a la vida nocturna de Copenhague?.
    Datos Película:
    Director: Niels Nørløv Hansen.
    Reparto: Anders W. Berthelsen, Nicolaj Kopernikus, Troels Lyby, Therese Glahn, Camilla Søeberg, Mira Wanting, Lene Nystrøm, Troels Malling Thaarup, Brian Lykke, Mia Nielsen-Jexen, Signe Skov, Søren Bregendal, Taina Anneli R. Berg, Frederikke Vedel, Anders Hove, Alexandra Ternstroem.
    País: Dinamarca.
    Género: Comedia.
    Duración: 90 Minutos.
    Más Detalles en Film Affinity
     
    Más Detalles en NordSubAdictos
    E-links:
    Bajar Película
    Torrent / Magnet:
    Bajar Película
    Subtítulos:
    Bajar Subtítulos en Español por SubAdictos
    Archivos adjuntados Archivos adjuntados
    Última edición por Fernando355; 07-04-2015 a las 19:08:45 Razón: Agregar afiche

  2. Los siguientes 14 usuarios agradecen el post de sirxevi:


  3. #2
    Subtitulador Avatar de sirxevi
    Fecha de ingreso
    03-04-2012
    Mensajes
    1,042
    Agradecimientos: 3011

    Predeterminado

    Tráiler:



    Información:
    Spoiler:
    SPOILER:
    General
    Complete name : Klassefesten (2011) [Niels Nørløv Hansen].avi
    Format : AVI
    Format/Info : Audio Video Interleave
    File size : 678 MiB
    Duration : 1h 30mn
    Overall bit rate : 1 043 Kbps
    Writing application : VirtualDubMod 1.5.10.2 (build 2542/release)
    Writing library : VirtualDubMod build 2542/release

    Video
    ID : 0
    Format : MPEG-4 Visual
    Format profile : Advanced [email protected]
    Format settings, BVOP : 1
    Format settings, QPel : No
    Format settings, GMC : No warppoints
    Format settings, Matrix : Default (H.263)
    Muxing mode : Packed bitstream
    Codec ID : XVID
    Codec ID/Hint : XviD
    Duration : 1h 30mn
    Bit rate : 905 Kbps
    Width : 720 pixels
    Height : 480 pixels
    Display aspect ratio : 3:2
    Frame rate : 25.000 fps
    Standard : NTSC
    Color space : YUV
    Chroma subsampling : 4:2:0
    Bit depth : 8 bits
    Scan type : Progressive
    Compression mode : Lossy
    Bits/(Pixel*Frame) : 0.105
    Stream size : 589 MiB (87%)
    Writing library : XviD 1.1.2 (UTC 2006-11-01)

    Audio
    ID : 1
    Format : MPEG Audio
    Format version : Version 1
    Format profile : Layer 3
    Mode : Joint stereo
    Mode extension : MS Stereo
    Codec ID : 55
    Codec ID/Hint : MP3
    Duration : 1h 30mn
    Bit rate mode : Constant
    Bit rate : 128 Kbps
    Channel(s) : 2 channels
    Sampling rate : 48.0 KHz
    Compression mode : Lossy
    Stream size : 83.2 MiB (12%)
    Alignment : Aligned on interleaves
    Interleave, duration : 40 ms (1.00 video frame)
    Interleave, preload duration : 504 ms
    Última edición por sirxevi; 25-11-2013 a las 17:45:02 Razón: Agregar Información

  4. #3
    Sin Adicción Avatar de yonidip
    Fecha de ingreso
    20-07-2013
    Mensajes
    7
    Agradecimientos: 2

    Predeterminado

    la segunda parte de esta pelicula en formato digital ya esta disponible en distintas fuentes...

  5. #4
    Subtitulador Avatar de Fernando355
    Fecha de ingreso
    31-10-2012
    Ubicación
    Lima.
    Mensajes
    33,817
    Agradecimientos: 38721

    Predeterminado

    Subtítulos disponibles por SubAdictos.Net.

    *SUBTÍTULOS EXCLUSIVOS*


    Traducción: federicio.

    Corrección: Fernando355.

  6. Los siguientes 2 usuarios agradecen el post de Fernando355:


  7. #5
    Subtitulador Avatar de Fernando355
    Fecha de ingreso
    31-10-2012
    Ubicación
    Lima.
    Mensajes
    33,817
    Agradecimientos: 38721

    Predeterminado

    Muchas gracias federicio, una buena comedia danesa. Lo nórdico sigue creciendo.

    Gracias sirxevi por la ficha.
    Última edición por Fernando355; 07-04-2015 a las 19:54:20

  8. Los siguientes usuarios agradecen a Fernando355 por este tema:


  9. #6
    Amigos de SubAdictos Avatar de luisIreneo
    Fecha de ingreso
    02-01-2013
    Ubicación
    Córdoba
    Mensajes
    17,741
    Agradecimientos: 35096

    Predeterminado

    Cita Iniciado por Fernando355 Ver mensaje
    Subtítulos disponibles por SubAdictos.Net.

    *SUBTÍTULOS EXCLUSIVOS*


    Traducción: federicio.

    Corrección: Fernando355.
    Gracias amigos !!

    Muevo a Comedia (+)

  10. #7
    Subtitulador Avatar de mcozeti
    Fecha de ingreso
    16-06-2011
    Ubicación
    Hurlingham, Buenos Aires
    Mensajes
    6,506
    Agradecimientos: 16885

    Predeterminado

    Genial, ahora si la historia completa.
    Muchas gracias federicio y Fernando.
    Última edición por mcozeti; 07-04-2015 a las 21:01:15

  11. #8
    Subtitulador Avatar de peliac
    Fecha de ingreso
    01-12-2010
    Ubicación
    Buenos Aires
    Mensajes
    19,378
    Agradecimientos: 23466

    Predeterminado

    Muchas gracias federicio y Fernando!

Información de tema

Usuarios viendo este tema

Actualmente hay 1 usuarios viendo este tema. (0 miembros y 1 visitantes)

Temas similares

  1. Respuestas: 11
    Último mensaje: 07-04-2015, 23:08:24
  2. The Reunion (2011) [playXD]
    Por McalvinoV en el foro Acción (+)
    Respuestas: 9
    Último mensaje: 29-11-2011, 22:13:20
  3. Respuestas: 0
    Último mensaje: 16-05-2011, 16:28:02

Miembros que han leído este tema: 3

Permisos de publicación

  • No puedes crear nuevos temas
  • No puedes responder temas
  • No puedes subir archivos adjuntos
  • No puedes editar tus mensajes
  •