Resultados 1 al 7 de 7

Tema: Den Gode Strømer / The Good Cop (2004)

  1. #1
    Subtitulador Avatar de sirxevi
    Fecha de ingreso
    03-04-2012
    Mensajes
    1,042
    Agradecimientos: 3015

    Dinamarca Den Gode Strømer / The Good Cop (2004)

    Den Gode Strømer / The Good Cop (2004)
    Sinopsis:
    Un policía quiere ayudar de buena fe a unos jóvenes traficantes "amigos", en vez de ponerlos en la cárcel, pero se verá implicado con todo tipo de traficantes detrás de ellos.
    Datos Película:
    Director: Lasse Spang Olsen.
    Reparto: Kim Bodnia, René Dif, Nicolas Bro, Robert Hansen, Iben Hjejle, Thomas Bo Larsen, Nikolaj Coster-Waldau, Jens Okking, Kenneth Carmohn, Laura Drasbæk, Kenneth Fogel, Kjeld Nørgaard, Lene Tiemroth.
    País: Dinamarca.
    Género: Acción, Comedia.
    Duración: 87 Minutos.
    Más Detalles en Film Affinity
     
    Más Detalles en NordSubAdictos
    E-links:
    Bajar Película
    Torrent / Magnet:
    Bajar Película
    Subtítulos:
    Bajar Subtítulos en Español
    Última edición por sirxevi; 06-02-2014 a las 14:07:44 Razón: Agregar afiche

  2. Los siguientes 17 usuarios agradecen el post de sirxevi:


  3. #2
    Subtitulador Avatar de sirxevi
    Fecha de ingreso
    03-04-2012
    Mensajes
    1,042
    Agradecimientos: 3015

    Predeterminado

    Tráiler:



    Información:
    Spoiler:
    SPOILER:
    General
    Complete name : Den gode strømer (2004).[Dvd.rex].avi
    Format : AVI
    Format/Info : Audio Video Interleave
    File size : 507 MiB
    Duration : 1h 24mn
    Overall bit rate : 836 Kbps

    Video
    ID : 0
    Format : MPEG-4 Visual
    Format settings, BVOP : Yes
    Format settings, QPel : No
    Format settings, GMC : No warppoints
    Format settings, Matrix : Default (H.263)
    Codec ID : DX50
    Codec ID/Hint : DivX 5
    Duration : 1h 24mn
    Source duration : 1h 24mn
    Bit rate : 733 Kbps
    Width : 640 pixels
    Height : 480 pixels
    Display aspect ratio : 4:3
    Frame rate : 25.000 fps
    Color space : YUV
    Chroma subsampling : 4:2:0
    Bit depth : 8 bits
    Scan type : Progressive
    Compression mode : Lossy
    Bits/(Pixel*Frame) : 0.095
    Stream size : 444 MiB (88%)
    Writing library : DivX 5.2.0 (UTC 2004-07-15)

    Audio
    ID : 1
    Format : MPEG Audio
    Format version : Version 1
    Format profile : Layer 3
    Mode : Joint stereo
    Mode extension : MS Stereo
    Codec ID : 55
    Codec ID/Hint : MP3
    Duration : 1h 24mn
    Bit rate mode : Constant
    Bit rate : 96.0 Kbps
    Channel(s) : 2 channels
    Sampling rate : 32.0 KHz
    Compression mode : Lossy
    Stream size : 58.2 MiB (11%)
    Alignment : Aligned on interleaves
    Interleave, duration : 36 ms (0.90 video frame)
    Interleave, preload duration : 396 ms
    Última edición por sirxevi; 06-02-2014 a las 14:01:02 Razón: Agregar Información

  4. Los siguientes usuarios agradecen a sirxevi por este tema:


  5. #3
    Adicto Avatar de fapero
    Fecha de ingreso
    27-11-2011
    Mensajes
    147
    Agradecimientos: 16

    Predeterminado

    gracias, genios. La estaba buscando hace rato

  6. #4
    Medio Adicto Avatar de Juldac
    Fecha de ingreso
    03-11-2013
    Mensajes
    46
    Agradecimientos: 7

    Predeterminado

    Gracias! pinta interesante! ¿Es el actor de Bron/Broen, no?

  7. #5
    Adicto Avatar de fapero
    Fecha de ingreso
    27-11-2011
    Mensajes
    147
    Agradecimientos: 16

    Predeterminado

    Cita Iniciado por Juldac Ver mensaje
    Gracias! pinta interesante! ¿Es el actor de Bron/Broen, no?
    Así es. Kim Bodnia.

  8. #6
    Amigos de SubAdictos Avatar de jmanuellopez76
    Fecha de ingreso
    05-02-2011
    Ubicación
    Bahia Blanca, la capital del Basquetbol en la Argentina!!
    Edad
    44
    Mensajes
    26,887
    Agradecimientos: 39427

    Predeterminado

    Gracias por el aporte!!!... se ve muy buena comedia e interesante para ser bajada, asi que ya lo estoy haciendo ya mismo, para vermela muy pronto!!

  9. #7
    Subtitulador Avatar de sirxevi
    Fecha de ingreso
    03-04-2012
    Mensajes
    1,042
    Agradecimientos: 3015

    Predeterminado

    Cita Iniciado por jmanuellopez76 Ver mensaje
    Gracias por el aporte!!!... se ve muy buena comedia e interesante para ser bajada, asi que ya lo estoy haciendo ya mismo, para vermela muy pronto!!
    Del mismo director y con el mismo protagonista tenemos estas dos:

    I Kina spiser de hunde / In China They Eat Dogs (1999)

    y su secuela:

    Gamle mænd i nye biler / Old Men in New Cars (2002)

    Para mi gusto mucho mejores, sobretodo la primera.

Información de tema

Usuarios viendo este tema

Actualmente hay 1 usuarios viendo este tema. (0 miembros y 1 visitantes)

Temas similares

  1. Good Night, and Good Luck (2005) [aXXo]
    Por hacu en el foro Drama (+)
    Respuestas: 5
    Último mensaje: 20-06-2020, 13:21:45
  2. In Good Company (2004)
    Por japezoa en el foro Comedia (+)
    Respuestas: 1
    Último mensaje: 25-02-2018, 20:38:02
  3. A Good Woman (2004)
    Por MaiaLara en el foro Romance (+)
    Respuestas: 18
    Último mensaje: 15-08-2016, 14:58:22
  4. A Few Good Men (1992)
    Por McalvinoV en el foro Thriller / Crimen (+)
    Respuestas: 12
    Último mensaje: 21-07-2015, 19:49:00
  5. Good (2008) [NO]
    Por Marime en el foro Drama (+)
    Respuestas: 2
    Último mensaje: 21-09-2012, 09:52:51

Miembros que han leído este tema: 12

Permisos de publicación

  • No puedes crear nuevos temas
  • No puedes responder temas
  • No puedes subir archivos adjuntos
  • No puedes editar tus mensajes
  •