Resultados 1 al 6 de 6

Tema: Skyskraber (2011)

  1. #1
    Subtitulador Avatar de sirxevi
    Fecha de ingreso
    03-04-2012
    Mensajes
    783
    Agradecimientos: 3041

    Dinamarca Skyskraber (2011)

    Skyskraber (2011) [GGW]
    Sinopsis:
    Jon un chico de 17 años, fue acusado de un accidente de tráfico en la tranquila ciudad donde vive y ha sido culpado por todo lo que va mal desde entonces. Su padre lo mantiene con una correa muy corta, pero cuando la niña ciega Edith le pide que actúe como su lazarillo, Jon poco a poco se da cuenta de que las cosas pueden cambiar….
    Datos Película:
    Director: Rune Schjøtt.
    Reparto: Lukas Schwarz Thorsteinsson, Marta Holm Peschcke-Køedt, Lucas Schultz, Morten Suurballe, Rikke Louise Andersson, Lars Brygmann, Mads Riisom, Emil Haugelund, Julie Grundtvig Wester, Helena Wagn Ivansdottir, Jeff Pitzner, Anders Hove.
    País: Dinamarca.
    Género: Comedia, Drama.
    Duración: 85 Minutos.
     
    Más Detalles en NordSubAdictos
    E-links:
    Bajar Película
    Torrent / Magnet:
    Bajar Película
    Subtítulos:
    Español
    Última edición por sirxevi; 06-02-2014 a las 14:08:14 Razón: Agregar afiche

  2. Los siguientes 10 usuarios agradecen el post de sirxevi:


  3. #2
    Subtitulador Avatar de sirxevi
    Fecha de ingreso
    03-04-2012
    Mensajes
    783
    Agradecimientos: 3041

    Predeterminado

    Tráiler:

    ERROR: If you can see this, then YouTube is down or you don't have Flash installed.


    Información:
    Spoiler:
    SPOILER:
    General
    Complete name : Skyskraber (2011).[Rune Schjøtt].[DANISH.DVDRip.XviD-GGW].avi
    Format : AVI
    Format/Info : Audio Video Interleave
    File size : 697 MiB
    Duration : 1h 24mn
    Overall bit rate mode : Variable
    Overall bit rate : 1 151 Kbps
    Writing application : VirtualDubMod 1.5.10.2 (build 2540/release)
    Writing library : VirtualDubMod build 2540/release

    Video
    ID : 0
    Format : MPEG-4 Visual
    Format profile : Advanced [email protected]
    Format settings, BVOP : 2
    Format settings, QPel : No
    Format settings, GMC : No warppoints
    Format settings, Matrix : Default (H.263)
    Muxing mode : Packed bitstream
    Codec ID : XVID
    Codec ID/Hint : XviD
    Duration : 1h 24mn
    Bit rate : 1 008 Kbps
    Width : 608 pixels
    Height : 320 pixels
    Display aspect ratio : 1.900
    Frame rate : 25.000 fps
    Color space : YUV
    Chroma subsampling : 4:2:0
    Bit depth : 8 bits
    Scan type : Progressive
    Compression mode : Lossy
    Bits/(Pixel*Frame) : 0.207
    Stream size : 610 MiB (88%)
    Writing library : XviD 64

    Audio
    ID : 1
    Format : MPEG Audio
    Format version : Version 1
    Format profile : Layer 3
    Mode : Joint stereo
    Mode extension : MS Stereo
    Codec ID : 55
    Codec ID/Hint : MP3
    Duration : 1h 24mn
    Bit rate mode : Variable
    Bit rate : 128 Kbps
    Channel(s) : 2 channels
    Sampling rate : 48.0 KHz
    Compression mode : Lossy
    Stream size : 78.8 MiB (11%)
    Alignment : Aligned on interleaves
    Interleave, duration : 24 ms (0.60 video frame)
    Interleave, preload duration : 425 ms
    Writing library : LAME3.90.
    Encoding settings : -m j -V 4 -q 2 -lowpass 17.6 --abr 128
    Última edición por sirxevi; 06-02-2014 a las 13:59:05 Razón: Agregar Información

  4. #3
    Subtitulador Avatar de federicio
    Fecha de ingreso
    13-04-2012
    Ubicación
    Provincia de Bs. As.
    Mensajes
    13,332
    Agradecimientos: 17619

    Predeterminado

    aló...
    parece que hay una sola semilla, que debés ser vos sirxevi..
    pero no baja ni un poquitín

  5. #4
    Subtitulador Avatar de sirxevi
    Fecha de ingreso
    03-04-2012
    Mensajes
    783
    Agradecimientos: 3041

    Predeterminado

    Cita Iniciado por federicio Ver mensaje
    aló...
    parece que hay una sola semilla, que debés ser vos sirxevi..
    pero no baja ni un poquitín
    Ooops! despiste mio.
    Solucionado.

  6. #5
    Subtitulador Avatar de federicio
    Fecha de ingreso
    13-04-2012
    Ubicación
    Provincia de Bs. As.
    Mensajes
    13,332
    Agradecimientos: 17619

    Predeterminado

    Cita Iniciado por sirxevi Ver mensaje
    Ooops! despiste mio.
    Solucionado.
    muchas gracias..! ya empezó a bajar.

  7. #6
    Leyenda SubAdictos Avatar de jmanuellopez76
    Fecha de ingreso
    05-02-2011
    Ubicación
    Bahia Blanca, la capital del Basquetbol en la Argentina!!
    Edad
    45
    Mensajes
    21,526
    Agradecimientos: 43778

    Predeterminado

    Gracias por el aporte!!.. Me parece una muy linda comedia para ser vista este finde, asi que ya me la estoy bajandola!!

Información de tema

Usuarios viendo este tema

Actualmente hay 1 usuarios viendo este tema. (0 miembros y 1 visitantes)

Miembros que han leído este tema: 5

Permisos de publicación

  • No puedes crear nuevos temas
  • No puedes responder temas
  • No puedes subir archivos adjuntos
  • No puedes editar tus mensajes
  •