Resultados 1 al 8 de 8

Tema: En Kort En Lang / Shake Your Heart (2001)

  1. #1
    Subtitulador Avatar de sirxevi
    Fecha de ingreso
    03-04-2012
    Mensajes
    1,042
    Agradecimientos: 3015

    Dinamarca En Kort En Lang / Shake Your Heart (2001)

    En Kort En Lang / Shake Your Heart (2001)
    Sinopsis:
    Una comedia romántica sobre una pareja de homosexuales, Jacob (Mads Mikkelsen) y Jørgen (Troels Lyby), que viven juntos y tienen pensado casarse en el verano. Todo parece ir sobre ruedas hasta que una noche, donde la luna parece brillar de una manera especial, Jacob se enamora de Caroline (Charlotte Munck), la amiga de ambos, que vive con un piloto que se llama Tom (Jesper Lohman), que resulta ser el hermano de Jørgen. Jacob intenta esconder estos nuevos y confusos sentimientos pero su relación con Caroline sigue adelante mientras que su novio Jørgen y sus amigos comienzan a sospechar de que algo gordo debe estar ocurriendo.
    Datos Película:
    Director: Hella Joof.
    Reparto: Mads Mikkelsen, Troels Lyby, Charlotte Munck, Jesper Lohmann, Oskar Walsøe, Peter Frödin, Nikolaj Steen, Ditte Gråbøl, Morten Kirkskov, Henning Jensen, Pernille Højmark, Ellen Hillingsø, Ghita Nørby, Zlatko Buric, Benedikte Hansen, Lærke Winther Andersen.
    País: Dinamarca.
    Género: Comedia, Romance, Drama, Comedia romántica, Homosexualidad.
    Duración: 100 Minutos.
    Más Detalles en Film Affinity
     
    Más Detalles en NordSubAdictos
    E-links:
    Bajar Película
    Torrent / Magnet:
    Bajar Película
    Subtítulos:
    Bajar Subtítulos en Español (E-link)
    Bajar Subtítulos en Español (Torrent)
    Última edición por the darkness; 07-02-2014 a las 23:55:13 Razón: Agregados subtítulos para el Torrent.

  2. Los siguientes 15 usuarios agradecen el post de sirxevi:


  3. #2
    Subtitulador Avatar de sirxevi
    Fecha de ingreso
    03-04-2012
    Mensajes
    1,042
    Agradecimientos: 3015

    Predeterminado

    Tráiler:



    Información:
    Spoiler:
    SPOILER:
    General
    Complete name : En kort en lang (2001).avi
    Format : AVI
    Format/Info : Audio Video Interleave
    File size : 700 MiB
    Duration : 1h 40mn
    Overall bit rate mode : Variable
    Overall bit rate : 974 Kbps
    Writing application : VirtualDubMod 1.5.4.1 (build 2178/release)
    Writing library : VirtualDubMod build 2178/release

    Video
    ID : 0
    Format : MPEG-4 Visual
    Format settings, BVOP : 1
    Format settings, QPel : No
    Format settings, GMC : No warppoints
    Format settings, Matrix : Default (H.263)
    Muxing mode : Packed bitstream
    Codec ID : DX50
    Codec ID/Hint : DivX 5
    Duration : 1h 40mn
    Bit rate : 851 Kbps
    Width : 640 pixels
    Height : 272 pixels
    Display aspect ratio : 2.35:1
    Frame rate : 25.000 fps
    Color space : YUV
    Chroma subsampling : 4:2:0
    Bit depth : 8 bits
    Scan type : Progressive
    Compression mode : Lossy
    Bits/(Pixel*Frame) : 0.196
    Stream size : 612 MiB (87%)
    Writing library : DivX 6.4.0 (UTC 2006-10-03)

    Audio
    ID : 1
    Format : MPEG Audio
    Format version : Version 1
    Format profile : Layer 3
    Mode : Joint stereo
    Codec ID : 55
    Codec ID/Hint : MP3
    Duration : 1h 40mn
    Bit rate mode : Variable
    Bit rate : 110 Kbps
    Nominal bit rate : 128 Kbps
    Channel(s) : 2 channels
    Sampling rate : 48.0 KHz
    Compression mode : Lossy
    Stream size : 78.8 MiB (11%)
    Alignment : Aligned on interleaves
    Interleave, duration : 24 ms (0.60 video frame)
    Interleave, preload duration : 544 ms
    Writing library : LAME3.97
    Encoding settings : -m j -V 4 -q 2 -lowpass 17 --abr 128
    Language : Dansk
    Última edición por sirxevi; 06-02-2014 a las 13:57:05 Razón: Agregar Información

  4. #3
    Adicto Sin Retorno Avatar de sofya10
    Fecha de ingreso
    14-02-2013
    Ubicación
    Buenos Aires
    Mensajes
    1,518
    Agradecimientos: 20

    Predeterminado

    Gracias sirxevi!!!!!!!!!!!!!

  5. #4
    Adicto Sin Retorno Avatar de hm3mg
    Fecha de ingreso
    30-07-2011
    Ubicación
    Kuartel Gral de KAOS
    Mensajes
    4,119
    Agradecimientos: 1113

    Predeterminado

    Jajajaja!!!
    No te puedo creer! El Fisher de Rejseholdet, el burócrata de Blekingegade y Anna Pihl.

  6. #5
    Adicto Sin Retorno Avatar de barju
    Fecha de ingreso
    25-05-2010
    Ubicación
    buenos aires
    Mensajes
    2,348
    Agradecimientos: 375

    Predeterminado

    buenisimaaaa sir!!! muchas gracias... esta esta en el tintero hace años... ahora gracias a ti ya no mas!!!!

  7. #6
    Subtitulador Avatar de HJCOS
    Fecha de ingreso
    10-02-2011
    Ubicación
    Buenos Aires
    Edad
    75
    Mensajes
    1,699
    Agradecimientos: 878

    Predeterminado

    Subtítulos:
    Los que están en la ficha no van con la versión bajada del torrent.
    Para la versión 698MB van los siguientes.
    Ya los he chequeado. Por favor verificar

    En la ficha.
    Última edición por the darkness; 07-02-2014 a las 23:55:53

  8. #7
    Moderador Avatar de the darkness
    Fecha de ingreso
    24-04-2013
    Ubicación
    Somewhere I Belong
    Mensajes
    34,875
    Agradecimientos: 89286

    Predeterminado

    Cita Iniciado por HJCOS Ver mensaje
    Subtítulos:
    Los que están en la ficha no van con la versión bajada del torrent.
    Para la versión 698MB van los siguientes.
    Ya los he chequeado. Por favor verificar

    En la ficha.
    Agregados subtítulos para el Torrent a la ficha.
    Muchas gracias HJCOS por el enlace, y sirxevi por la ficha.

    Saludos!!

  9. #8
    Subtitulador Avatar de sirxevi
    Fecha de ingreso
    03-04-2012
    Mensajes
    1,042
    Agradecimientos: 3015

    Predeterminado

    Cita Iniciado por the darkness Ver mensaje
    Agregados subtítulos para el Torrent a la ficha.
    Muchas gracias HJCOS por el enlace, y sirxevi por la ficha.

    Saludos!!
    Llegué tarde.
    Muchas gracias the darkness.

Información de tema

Usuarios viendo este tema

Actualmente hay 1 usuarios viendo este tema. (0 miembros y 1 visitantes)

Temas similares

  1. Maria Lang - 05, Farliga drömmar / Dangerous Dreams (2013)
    Por gallia en el foro Thriller / Crimen (+)
    Respuestas: 25
    Último mensaje: 14-10-2020, 00:02:45
  2. Maria Lang - 03, Inte flera mord / No More Murders (2013)
    Por gallia en el foro Thriller / Crimen (+)
    Respuestas: 32
    Último mensaje: 19-08-2019, 19:46:38
  3. Arturo Ripstein y los martinis de Luis Buñuel y Fritz Lang
    Por Amadel en el foro Noticias de Cine y Documentales
    Respuestas: 2
    Último mensaje: 25-06-2016, 15:38:23
  4. Shake Hands with the Devil (2007)
    Por gabnic en el foro Drama (+)
    Respuestas: 4
    Último mensaje: 09-05-2016, 15:12:59
  5. Respuestas: 3
    Último mensaje: 04-11-2013, 11:12:50

Miembros que han leído este tema: 3

Permisos de publicación

  • No puedes crear nuevos temas
  • No puedes responder temas
  • No puedes subir archivos adjuntos
  • No puedes editar tus mensajes
  •