Resultados 1 al 7 de 7

Tema: Dommeren / The Judge (2005)

  1. #1
    Subtitulador Avatar de sirxevi
    Fecha de ingreso
    03-04-2012
    Mensajes
    1,042
    Agradecimientos: 3015

    Dinamarca Dommeren / The Judge (2005)

    Dommeren / The Judge (2005)
    Sinopsis:
    Tras ser nombrado Presidente de la Asociación Danesa de Refugiados Jens Christian, uno de los jueces más competentes de su país, decide deportar al poeta y activista social Sergo Bliadze quien, al recibir la noticia, se suicida. Justo después, el Ministerio de Justicia, los medios de comunicación y sus propios colegas se vuelven en contra del juez.
    Datos Película:
    Director: Gert Fredholm.
    Reparto: Peter Gantzler, Micky Skeel Hansen, Benjamin Boe Rasmussen.
    País: Dinamarca.
    Género: Thriller, Política.
    Duración: 90 Minutos.
    Más Detalles en Film Affinity
     
    Más Detalles en NordSubAdictos
    E-links:
    Bajar Película
    Torrent / Magnet:
    Bajar Película
    Subtítulos:
    Bajar Subtítulos en Español por SubAdictos
    Archivos adjuntados Archivos adjuntados
    Última edición por sirxevi; 01-04-2015 a las 18:32:48 Razón: Agregar subtítulos en Español.

  2. Los siguientes 30 usuarios agradecen el post de sirxevi:


  3. #2
    Subtitulador Avatar de sirxevi
    Fecha de ingreso
    03-04-2012
    Mensajes
    1,042
    Agradecimientos: 3015

    Predeterminado

    Tráiler:



    Información Técnica:
    Spoiler:
    SPOILER:
    General
    Complete name : Dommeren.avi
    Format : AVI
    Format/Info : Audio Video Interleave
    File size : 699 MiB
    Duration : 1h 26mn
    Overall bit rate : 1 132 Kbps
    Writing application : transcode-1.1.4

    Video
    ID : 0
    Format : MPEG-4 Visual
    Format profile : Advanced [email protected]
    Format settings, BVOP : 1
    Format settings, QPel : No
    Format settings, GMC : No warppoints
    Format settings, Matrix : Default (H.263)
    Codec ID : XVID
    Codec ID/Hint : XviD
    Duration : 1h 26mn
    Bit rate : 995 Kbps
    Width : 656 pixels
    Height : 288 pixels
    Display aspect ratio : 2.25:1
    Frame rate : 25.000 fps
    Color space : YUV
    Chroma subsampling : 4:2:0
    Bit depth : 8 bits
    Scan type : Progressive
    Compression mode : Lossy
    Bits/(Pixel*Frame) : 0.211
    Stream size : 614 MiB (88%)
    Writing library : XviD 1.2.1 (UTC 2008-12-04)

    Audio
    ID : 1
    Format : MPEG Audio
    Format version : Version 1
    Format profile : Layer 3
    Mode : Joint stereo
    Mode extension : MS Stereo
    Codec ID : 55
    Codec ID/Hint : MP3
    Duration : 1h 26mn
    Bit rate mode : Constant
    Bit rate : 128 Kbps
    Channel(s) : 2 channels
    Sampling rate : 44.1 KHz
    Compression mode : Lossy
    Stream size : 79.0 MiB (11%)
    Alignment : Split accross interleaves
    Interleave, duration : 40 ms (1.00 video frame)
    Writing library : LAME3.98.2
    Última edición por sirxevi; 09-03-2014 a las 11:23:41 Razón: Agregar Información

  4. Los siguientes 3 usuarios agradecen el post de sirxevi:


  5. #3
    Subtitulador Avatar de sirxevi
    Fecha de ingreso
    03-04-2012
    Mensajes
    1,042
    Agradecimientos: 3015

    Predeterminado

    Película en proceso de traducción.

  6. Los siguientes 2 usuarios agradecen el post de sirxevi:


  7. #4
    Subtitulador Avatar de mcozeti
    Fecha de ingreso
    16-06-2011
    Ubicación
    Hurlingham, Buenos Aires
    Mensajes
    6,537
    Agradecimientos: 17114

    Predeterminado

    Genial, esta estaba en la lista...
    Gracias sirxevi, un golazo.

  8. #5
    Subtitulador Avatar de sirxevi
    Fecha de ingreso
    03-04-2012
    Mensajes
    1,042
    Agradecimientos: 3015

    Predeterminado

    Subtítulos disponibles por SubAdictos.Net.

    *SUBTÍTULOS EXCLUSIVOS*


    Traducción: emece2511.

    Corrección: sirxevi.

  9. Los siguientes 6 usuarios agradecen el post de sirxevi:


  10. #6
    Subtitulador Avatar de mcozeti
    Fecha de ingreso
    16-06-2011
    Ubicación
    Hurlingham, Buenos Aires
    Mensajes
    6,537
    Agradecimientos: 17114

    Predeterminado

    Gracias emece2511 y sirxevi por el subtítulo.

  11. #7
    Amigos de SubAdictos Avatar de luisIreneo
    Fecha de ingreso
    02-01-2013
    Ubicación
    Córdoba
    Mensajes
    17,741
    Agradecimientos: 35111

    Predeterminado

    Gracias por los subs emece2511 y sirxevi.

Información de tema

Usuarios viendo este tema

Actualmente hay 1 usuarios viendo este tema. (0 miembros y 1 visitantes)

Temas similares

  1. The Judge (2014) [SPARKS]
    Por the darkness en el foro Drama (+)
    Respuestas: 21
    Último mensaje: 05-06-2017, 09:49:14
  2. The Judge (2014) [RARBG] 720p WEB-DL
    Por the darkness en el foro Drama HD (+)
    Respuestas: 7
    Último mensaje: 05-01-2015, 08:30:56
  3. Judge Dredd (1995) [AGP]
    Por McalvinoV en el foro Sci-Fi (+)
    Respuestas: 7
    Último mensaje: 19-04-2014, 19:25:05
  4. Judge Priest (1934)
    Por Marime en el foro Comedia (+)
    Respuestas: 0
    Último mensaje: 08-04-2012, 17:02:19

Miembros que han leído este tema: 13

Permisos de publicación

  • No puedes crear nuevos temas
  • No puedes responder temas
  • No puedes subir archivos adjuntos
  • No puedes editar tus mensajes
  •