Resultados 1 al 13 de 13

Tema: Eksperimentet / The Experiment (2010)

  1. #1
    Subtitulador Avatar de sirxevi
    Fecha de ingreso
    03-04-2012
    Mensajes
    1,042
    Agradecimientos: 3015

    Dinamarca Eksperimentet / The Experiment (2010)

    Eksperimentet / The Experiment (2010)
    Sinopsis:
    Groenlandia, 1951. El experimento narra la historia de Gert, una enfermera encargada de dirigir un hogar de niños especiales manejado por el estado danés en Groenlandia. El hogar está diseñado para instalar a 16 niños nacidos en Groenlandia, especialmente seleccionados luego de pasar un año en Dinamarca, para ser luego presentados como modelos en su comunidad de origen. Gert no tiene familia y acepta el desafío con orgullo: ella es idealista y siente una enorme satisfacción al civilizar y educar a estos jóvenes en la cultura y el idioma danés. Pero no puede imaginar los altos costos personales de la tarea, particularmente cuando tanto los chicos como el estado danés comiencen a fallarle.
    Datos Película:
    Director: Louise Friedberg.
    Reparto: Ellen Hillingsø, Morten Grunwald, Laura Skaarup Jensen, Kurt Ravn, Laura Bro, Mads Wille, Finn Nielsen, Nukâka, Domilia Marianne Singertat, Paniaraq R. Søltoft, Najaaraq Margit Davidsen, Kristian Falck-Petersen.
    País: Dinamarca.
    Género: Drama, Años 50.
    Duración: 93 Minutos.
    Más Detalles en Film Affinity
     
    Más Detalles en NordSubAdictos
    E-links:
    Bajar Película
    Torrent / Magnet:
    Bajar Película
    Subtítulos:
    Bajar Subtítulos en Español por SubAdictos
    Archivos adjuntados Archivos adjuntados
    Última edición por Fernando355; 17-06-2015 a las 14:02:00 Razón: Agregar afiche

  2. Los siguientes 22 usuarios agradecen el post de sirxevi:


  3. #2
    Subtitulador Avatar de sirxevi
    Fecha de ingreso
    03-04-2012
    Mensajes
    1,042
    Agradecimientos: 3015

    Predeterminado

    Tráiler:



    Información Técnica:
    Spoiler:
    SPOILER:
    General
    Complete name : Eksperimentet.avi
    Format : AVI
    Format/Info : Audio Video Interleave
    File size : 789 MiB
    Duration : 1h 28mn
    Overall bit rate : 1 241 Kbps

    Video
    ID : 0
    Format : MPEG-4 Visual
    Format profile : Advanced [email protected]
    Format settings, BVOP : 2
    Format settings, QPel : No
    Format settings, GMC : No warppoints
    Format settings, Matrix : Default (H.263)
    Codec ID : XVID
    Codec ID/Hint : XviD
    Duration : 1h 28mn
    Bit rate : 1 100 Kbps
    Width : 720 pixels
    Height : 308 pixels
    Display aspect ratio : 2.35:1
    Frame rate : 25.000 fps
    Color space : YUV
    Chroma subsampling : 4:2:0
    Bit depth : 8 bits
    Scan type : Progressive
    Compression mode : Lossy
    Bits/(Pixel*Frame) : 0.198
    Stream size : 700 MiB (89%)
    Writing library : XviD 1.2.1 (UTC 2008-12-04)

    Audio
    ID : 1
    Format : MPEG Audio
    Format version : Version 1
    Format profile : Layer 3
    Codec ID : 55
    Codec ID/Hint : MP3
    Duration : 58mn 5s
    Source duration : 1h 28mn
    Bit rate mode : Constant
    Bit rate : 128 Kbps
    Channel(s) : 2 channels
    Sampling rate : 44.1 KHz
    Compression mode : Lossy
    Stream size : 81.4 MiB (10%)
    Alignment : Split accross interleaves
    Interleave, duration : 26 ms (0.65 video frame)
    Última edición por sirxevi; 09-03-2014 a las 11:26:01 Razón: Agregar Información

  4. Los siguientes 3 usuarios agradecen el post de sirxevi:


  5. #3
    Subtitulador Avatar de mcozeti
    Fecha de ingreso
    16-06-2011
    Ubicación
    Hurlingham, Buenos Aires
    Mensajes
    6,537
    Agradecimientos: 17114

    Predeterminado

    Película en proceso de traducción.

  6. Los siguientes 5 usuarios agradecen el post de mcozeti:


  7. #4
    Subtitulador Avatar de Fernando355
    Fecha de ingreso
    31-10-2012
    Ubicación
    Lima.
    Mensajes
    33,997
    Agradecimientos: 39361

    Predeterminado

    Subtítulos disponibles por SubAdictos.Net.

    *SUBTÍTULOS EXCLUSIVOS*


    Traducción: mcozeti.

    Corrección: Fernando355.

  8. Los siguientes 6 usuarios agradecen el post de Fernando355:


  9. #5
    Subtitulador Avatar de Fernando355
    Fecha de ingreso
    31-10-2012
    Ubicación
    Lima.
    Mensajes
    33,997
    Agradecimientos: 39361

    Predeterminado

    Muchas gracias mcozeti por la traducción de la película.

    Gracias a sirxevi por la ficha.

  10. Los siguientes usuarios agradecen a Fernando355 por este tema:


  11. #6
    Amigos de SubAdictos Avatar de luisIreneo
    Fecha de ingreso
    02-01-2013
    Ubicación
    Córdoba
    Mensajes
    17,741
    Agradecimientos: 35111

    Predeterminado

    Gracias mcozeti y Fernando, a sirxevi por el posteo.

    Muevo a Drama (+)
    Última edición por luisIreneo; 17-06-2015 a las 14:52:13

  12. Los siguientes 2 usuarios agradecen el post de luisIreneo:


  13. #7
    Adicto Sin Retorno Avatar de Thazpa
    Fecha de ingreso
    20-05-2014
    Mensajes
    845
    Agradecimientos: 404

    Predeterminado

    Muchas gracias amigos!!!

  14. Los siguientes usuarios agradecen a Thazpa por este tema:


  15. #8
    Subtitulador Avatar de miyamotos
    Fecha de ingreso
    12-09-2012
    Mensajes
    7,097
    Agradecimientos: 20531

    Predeterminado

    Muchas gracias a ambos por vuestro trabajo.

  16. Los siguientes usuarios agradecen a miyamotos por este tema:


  17. #9
    Medio Adicto Avatar de PaezHache
    Fecha de ingreso
    24-07-2014
    Ubicación
    Medellín
    Edad
    44
    Mensajes
    36
    Agradecimientos: 11


    Seguir a PaezHache en Twitter Agrega a PaezHache en Facebook

    Predeterminado

    Está basada en un hecho real... (Lastimosamente)

  18. #10
    Subtitulador Avatar de mcozeti
    Fecha de ingreso
    16-06-2011
    Ubicación
    Hurlingham, Buenos Aires
    Mensajes
    6,537
    Agradecimientos: 17114

    Predeterminado

    Cita Iniciado por PaezHache Ver mensaje
    Está basada en un hecho real... (Lastimosamente)
    ¿En serio PaezHache?
    ¿Podés agregar algo más?
    Saludos.

  19. #11
    Subtitulador Avatar de federicio
    Fecha de ingreso
    13-04-2012
    Ubicación
    Provincia de Bs. As.
    Mensajes
    16,001
    Agradecimientos: 16256

    Predeterminado

    gracias mcozeti y Fernando por los subtítulos.

  20. #12
    Adicto Sin Retorno Avatar de McRheiss
    Fecha de ingreso
    01-02-2010
    Ubicación
    Valparaíso
    Mensajes
    26,657
    Agradecimientos: 5627

    Predeterminado

    Alguien la puede comentar?
    Acabo de leer el post sobre Groenlandia y hacen mención a esta película.

  21. #13
    Subtitulador Avatar de fanny
    Fecha de ingreso
    08-07-2015
    Ubicación
    Galicia
    Edad
    46
    Mensajes
    88,147
    Agradecimientos: 136610

    Predeterminado

    Gracias sirxevi, mcozeti y fernando

Información de tema

Usuarios viendo este tema

Actualmente hay 1 usuarios viendo este tema. (0 miembros y 1 visitantes)

Temas similares

  1. The Experiment (2010) [CHD] 720p
    Por McalvinoV en el foro Drama HD (+)
    Respuestas: 17
    Último mensaje: 16-06-2013, 19:45:05
  2. Psychic Experiment (2010) [IGUANA]
    Por McalvinoV en el foro Terror / Horror (+)
    Respuestas: 3
    Último mensaje: 08-04-2012, 14:13:56
  3. The Experiment (2010) [DEPRAViTY]
    Por McalvinoV en el foro Drama (+)
    Respuestas: 20
    Último mensaje: 14-07-2011, 01:11:59
  4. The Steam Experiment / The Chaos Experiment (2009) [VoMiT]
    Por McalvinoV en el foro Thriller / Crimen (+)
    Respuestas: 6
    Último mensaje: 09-09-2010, 21:31:24

Miembros que han leído este tema: 10

Permisos de publicación

  • No puedes crear nuevos temas
  • No puedes responder temas
  • No puedes subir archivos adjuntos
  • No puedes editar tus mensajes
  •