Resultados 1 al 3 de 3

Tema: Folk flest bor i Kina (2002)

  1. #1
    Subtitulador Avatar de sirxevi
    Fecha de ingreso
    03-04-2012
    Mensajes
    783
    Agradecimientos: 3043

    Noruega Folk flest bor i Kina (2002)

    Folk flest bor i Kina (2002)
    Sinopsis:
    Mucha gente vive en China. Pero,¿quiénes en realidad viven en Noruega, a primera vista, un país perfecto? Una posible respuesta se perfila entre las líneas de esta sorprendente película, que cuenta ocho historias inspiradas por ocho partidos políticos, escritos por seis guionistas y dirigida por nueve directores. La película se desarrolla durante las 24 horas anteriores a las elecciones en Noruega, en la estación de gasolina de Lasse, un lugar que representa un microcosmos de dicha sociedad. En una zona poco poblada, de gran extensión, cada votante debe parar aquí para cargar gasolina. Lasse se gana la vida vendiéndola, pero su verdadero sueño es ser piloto. Estas 24 particulares horas terminan siendo fantásticas para él ... Una comedia poco convencional sobre cosas pequeñas y grandes consecuencias.
    Datos Película:
    Director: Thomas Robsahm, Martin Asphaug, Arild Fröhlich, Sara Johnsen, Magnus Martens, Hans Petter Moland, Terje Rangnes, Ingebjørg Torgersen, Morten Tyldum.
    Reparto: Ingar Helge Gimle, Kim Haugen, Bjarte Hjelmeland.
    País: Noruega.
    Género: Comedia, Drama, Película de episodios.
    Duración: 83 Minutos.
    Más Detalles en Film Affinity
     
    Más Detalles en NordSubAdictos
    E-links:
    Bajar Película
    Torrent / Magnet:
    Bajar Película
    Subtítulos:
    Español
    Última edición por sirxevi; 19-03-2014 a las 14:48:31 Razón: Agregar afiche

  2. Los siguientes 9 usuarios agradecen el post de sirxevi:


  3. #2
    Subtitulador Avatar de sirxevi
    Fecha de ingreso
    03-04-2012
    Mensajes
    783
    Agradecimientos: 3043

    Predeterminado

    Imágenes:
    Spoiler:
    SPOILER:







    Información Técnica:
    Spoiler:
    SPOILER:
    General
    Complete name : Folk flest bor i Kina (2002).[xvid.Saga].avi
    Format : AVI
    Format/Info : Audio Video Interleave
    File size : 700 MiB
    Duration : 1h 22mn
    Overall bit rate mode : Variable
    Overall bit rate : 1 190 Kbps
    Movie name : Folk flest bor i Kina.2002.Norsk tale.xvid.Saga
    Director : Ripped by Saga
    Writing application : VirtualDubMod 1.5.4.1 (build 2178/release) VirtualDubMod build 2178/release
    Copyright : http//:thepiratebay.org/user/Sagablanc

    Video
    ID : 0
    Format : MPEG-4 Visual
    Format profile : [email protected]
    Format settings, BVOP : 1
    Format settings, QPel : No
    Format settings, GMC : No warppoints
    Format settings, Matrix : Custom
    Codec ID : XVID
    Codec ID/Hint : XviD
    Duration : 1h 22mn
    Bit rate : 1 060 Kbps
    Width : 544 pixels
    Height : 288 pixels
    Display aspect ratio : 1.889
    Frame rate : 25.000 fps
    Color space : YUV
    Chroma subsampling : 4:2:0
    Bit depth : 8 bits
    Scan type : Progressive
    Compression mode : Lossy
    Bits/(Pixel*Frame) : 0.271
    Stream size : 624 MiB (89%)
    Writing library : XviD 0.0.09 (UTC 2003-03-25)

    Audio
    ID : 1
    Format : MPEG Audio
    Format version : Version 1
    Format profile : Layer 3
    Mode : Joint stereo
    Mode extension : MS Stereo
    Codec ID : 55
    Codec ID/Hint : MP3
    Duration : 1h 22mn
    Bit rate mode : Variable
    Bit rate : 117 Kbps
    Nominal bit rate : 128 Kbps
    Channel(s) : 2 channels
    Sampling rate : 48.0 KHz
    Compression mode : Lossy
    Stream size : 68.7 MiB (10%)
    Alignment : Aligned on interleaves
    Interleave, duration : 24 ms (0.60 video frame)
    Interleave, preload duration : 503 ms
    Writing library : LAME3.90.
    Encoding settings : -m j -V 0 -q 5 -lowpass 15.3 --abr 128
    Language : Undefined

  4. #3
    Subtitulador Avatar de sirxevi
    Fecha de ingreso
    03-04-2012
    Mensajes
    783
    Agradecimientos: 3043

    Predeterminado

    Los subtítulos son un poco malos, pero no hay otros.
    En cuanto pueda intentaré mejorarlos.
    Última edición por sirxevi; 19-03-2014 a las 14:47:31

Información de tema

Usuarios viendo este tema

Actualmente hay 1 usuarios viendo este tema. (0 miembros y 1 visitantes)

Temas similares

  1. Respuestas: 11
    Último mensaje: 27-10-2018, 10:49:47
  2. I Kina spiser de hunde / In China They Eat Dogs (1999)
    Por sirxevi en el foro Acción (+)
    Respuestas: 19
    Último mensaje: 10-02-2016, 19:04:17
  3. Okay (2002)
    Por sirxevi en el foro Drama (+)
    Respuestas: 9
    Último mensaje: 14-07-2015, 21:46:22
  4. The History of Future Folk (2012)
    Por luisIreneo en el foro Comedia (+)
    Respuestas: 3
    Último mensaje: 05-12-2014, 23:08:57
  5. Respuestas: 1
    Último mensaje: 21-09-2014, 15:23:54

Miembros que han leído este tema: 5

Permisos de publicación

  • No puedes crear nuevos temas
  • No puedes responder temas
  • No puedes subir archivos adjuntos
  • No puedes editar tus mensajes
  •