Resultados 1 al 4 de 4

Tema: Foreldrar / Parents (2007)

  1. #1
    Subtitulador Avatar de sirxevi
    Fecha de ingreso
    03-04-2012
    Mensajes
    1,042
    Agradecimientos: 3016

    Islandia Foreldrar / Parents (2007)

    Foreldrar / Parents (2007)
    Sinopsis:
    Óskar, dentista de profesión, está casado desde hace cinco años y tiene cinco hijos adoptados. Todo parece irle bien pero no es un hombre feliz. Óskar quiere un hijo biológico propio.
    Datos Película:
    Director: Ragnar Bragason.
    Reparto: Ingvar Eggert Sigurðsson, Edda Arnljótsdóttir, Reine Brynolfsson, Brian Fitzgibbon, Gísli Örn Garðarsson, Þröstur Leó Gunnarsson, Gunnar Hansson, Jóna Guðrún Jónsdóttir.
    País: Islandia.
    Género: Drama, Secuela, Historias cruzadas.
    Duración: 90 Minutos.
    Más Detalles en Film Affinity
     
    Más Detalles en NordSubAdictos
    E-links:
    No Disponible
    Torrent / Magnet:
    Bajar Película
    Subtítulos:
    Bajar Subtítulos en Español
    Descargas Directas:

    FileFactory
    http://filefactory.com/file/1plb2ouft6it/n/frldrr-prnts.part1.rar
    http://filefactory.com/file/6oxossvzubf1/n/frldrr-prnts.part2.rar
    http://filefactory.com/file/4neljmfmf1hd/n/frldrr-prnts.part3.rar
    http://filefactory.com/file/718djgd7ekdp/n/frldrr-prnts.part4.rar
    Última edición por sirxevi; 15-04-2014 a las 12:50:39 Razón: Agregar afiche

  2. Los siguientes 3 usuarios agradecen el post de sirxevi:


  3. #2
    Subtitulador Avatar de sirxevi
    Fecha de ingreso
    03-04-2012
    Mensajes
    1,042
    Agradecimientos: 3016

    Predeterminado

    Tráiler:



    Información Técnica:
    Spoiler:
    SPOILER:
    General
    Complete name : Foreldrar (2007).avi
    Format : AVI
    Format/Info : Audio Video Interleave
    File size : 700 MiB
    Duration : 1h 20mn
    Overall bit rate : 1 211 Kbps
    Writing application : FairUse Wizard - http://fairusewizard.com
    Writing library : The best and REALLY easy backup tool

    Video
    ID : 0
    Format : MPEG-4 Visual
    Format profile : [email protected]
    Format settings, BVOP : No
    Format settings, QPel : No
    Format settings, GMC : No warppoints
    Format settings, Matrix : Default (H.263)
    Codec ID : XVID
    Codec ID/Hint : XviD
    Duration : 1h 20mn
    Bit rate : 1 074 Kbps
    Width : 624 pixels
    Height : 336 pixels
    Display aspect ratio : 1.85:1
    Frame rate : 25.000 fps
    Color space : YUV
    Chroma subsampling : 4:2:0
    Bit depth : 8 bits
    Scan type : Progressive
    Compression mode : Lossy
    Bits/(Pixel*Frame) : 0.205
    Stream size : 620 MiB (89%)
    Writing library : XviD 1.2.1 (UTC 2008-12-04)

    Audio
    ID : 1
    Format : MPEG Audio
    Format version : Version 1
    Format profile : Layer 3
    Mode : Joint stereo
    Mode extension : MS Stereo
    Codec ID : 55
    Codec ID/Hint : MP3
    Duration : 1h 20mn
    Bit rate mode : Constant
    Bit rate : 128 Kbps
    Channel(s) : 2 channels
    Sampling rate : 48.0 KHz
    Compression mode : Lossy
    Stream size : 73.9 MiB (11%)
    Alignment : Aligned on interleaves
    Interleave, duration : 40 ms (1.00 video frame)
    Interleave, preload duration : 504 ms
    Writing library : LAME3.97
    Encoding settings : -m j -V 4 -q 2 -lowpass 17 -b 128
    Última edición por sirxevi; 15-04-2014 a las 12:48:09 Razón: Agregar Información

  4. #3
    Adicto Sin Retorno Avatar de rayorojo
    Fecha de ingreso
    14-04-2011
    Ubicación
    Córdoba
    Mensajes
    1,739
    Agradecimientos: 1835

    Predeterminado

    Hola a todos ... puede ser que no haya semillas??? ... llegué a 35.2 % y se plantó ... si alguien la tiene le agradecería que se conecte mañana ... gracias ... rayorojo

  5. #4
    Adicto Sin Retorno Avatar de rayorojo
    Fecha de ingreso
    14-04-2011
    Ubicación
    Córdoba
    Mensajes
    1,739
    Agradecimientos: 1835

    Predeterminado

    Gracias sirxevi ... esta mañana pude completarla en muy poco tiempo ... emocionante la respuesta a mi pedido ... ahora habrá otra semilla por varias semanas más... saludos ... rayorojo

Información de tema

Usuarios viendo este tema

Actualmente hay 1 usuarios viendo este tema. (0 miembros y 1 visitantes)

Temas similares

  1. Parents (1989) [aXe]
    Por McalvinoV en el foro Comedia (+)
    Respuestas: 1
    Último mensaje: 28-04-2015, 22:44:33
  2. Parents: Temporada Única (2012) (+)
    Por McalvinoV en el foro Temporadas Finalizadas
    Respuestas: 9
    Último mensaje: 03-04-2015, 18:31:33

Miembros que han leído este tema: 8

Permisos de publicación

  • No puedes crear nuevos temas
  • No puedes responder temas
  • No puedes subir archivos adjuntos
  • No puedes editar tus mensajes
  •