Resultados 1 al 4 de 4

Tema: Over gaden under vandet / Above the Street, Below the Water (2009)

  1. #1
    Subtitulador Avatar de sirxevi
    Fecha de ingreso
    03-04-2012
    Mensajes
    787
    Agradecimientos: 3026

    Dinamarca Over gaden under vandet / Above the Street, Below the Water (2009)

    Over gaden under vandet / Above the Street, Below the Water (2009)
    Sinopsis:
    Ask está casado con Anne. Tienen todo lo que quieren: buenas carreras, hijos cariñosos y un departamento en Christianshavn, el área más linda de Copenhague. Una mañana, Anne se entera de que Ask quiere tomar un descanso de su matrimonio. ¿Por qué? ¿Está viendo a otra mujer? Como anillos en el agua, la decisión de Ask afecta a todos a su alrededor. Esta película coral, dirigida por Charlotte Sieling plantea los dilemas de la generación adulta de hoy, para la que todo es posible y el cielo es el límite. Pero todas las decisiones tienen consecuencias?.
    Datos Película:
    Director: Charlotte Sieling.
    Reparto: Sidse Babett Knudsen, Mohammed Al-Bakier, Anders W. Berthelsen, Nicolas Bro, Casper Crump, Emil Poulsen, Charlotte Fich, Rosa K. Frederiksen, Tina Gylling Mortensen.
    País: Dinamarca.
    Género: Drama.
    Duración: 100 Minutos.
    Más Detalles en Film Affinity
     
    Más Detalles en NordSubAdictos
    E-links:
    Bajar Película
    Torrent / Magnet:
    Bajar Película
    Subtítulos:
    Bajar Subtítulos en Español
    Última edición por sirxevi; 23-04-2014 a las 11:53:06 Razón: Agregar afiche

  2. Los siguientes 16 usuarios agradecen el post de sirxevi:


  3. #2
    Subtitulador Avatar de sirxevi
    Fecha de ingreso
    03-04-2012
    Mensajes
    787
    Agradecimientos: 3026

    Predeterminado

    Tráiler:

    ERROR: If you can see this, then YouTube is down or you don't have Flash installed.


    Información Técnica:
    Spoiler:
    SPOILER:
    General
    Complete name : Over Gaden Under Vandet (2009).[Charlotte Sieling].avi
    Format : AVI
    Format/Info : Audio Video Interleave
    File size : 697 MiB
    Duration : 1h 25mn
    Overall bit rate : 1 144 Kbps
    Writing application : VirtualDubMod 1.5.10.2 (build 2540/release)
    Writing library : VirtualDubMod build 2540/release

    Video
    ID : 0
    Format : MPEG-4 Visual
    Format profile : Advanced [email protected]
    Format settings, BVOP : 2
    Format settings, QPel : No
    Format settings, GMC : No warppoints
    Format settings, Matrix : Default (H.263)
    Muxing mode : Packed bitstream
    Codec ID : XVID
    Codec ID/Hint : XviD
    Duration : 1h 25mn
    Bit rate : 1 001 Kbps
    Width : 704 pixels
    Height : 288 pixels
    Display aspect ratio : 2.40:1
    Frame rate : 25.000 fps
    Color space : YUV
    Chroma subsampling : 4:2:0
    Bit depth : 8 bits
    Scan type : Progressive
    Compression mode : Lossy
    Bits/(Pixel*Frame) : 0.197
    Stream size : 609 MiB (87%)
    Writing library : XviD 1.2.1 (UTC 2008-12-04)

    Audio
    ID : 1
    Format : MPEG Audio
    Format version : Version 1
    Format profile : Layer 3
    Mode : Joint stereo
    Codec ID : 55
    Codec ID/Hint : MP3
    Duration : 1h 25mn
    Bit rate mode : Constant
    Bit rate : 32.0 Kbps
    Channel(s) : 2 channels
    Sampling rate : 48.0 KHz
    Compression mode : Lossy
    Stream size : 79.6 MiB (11%)
    Alignment : Aligned on interleaves
    Interleave, duration : 24 ms (0.60 video frame)
    Interleave, preload duration : 123 ms
    Writing library : LAME3.90.3
    Última edición por sirxevi; 23-04-2014 a las 11:47:27

  4. #3
    Subtitulador
    Fecha de ingreso
    13-04-2012
    Ubicación
    Provincia de Bs. As.
    Mensajes
    13,143
    Agradecimientos: 17283

    Predeterminado

    gracias por el aporte sirxevi...
    siempre es lindo ver trabajar a Sidse Babett Knudsen, y pinta ser un tema interesante

  5. #4
    Adicto Sin Retorno Avatar de barju
    Fecha de ingreso
    25-05-2010
    Ubicación
    buenos aires
    Mensajes
    1,232
    Agradecimientos: 376

    Predeterminado

    gracias Sir!!! buen elenco"!!! y muy buena pinta!!!

Información de tema

Usuarios viendo este tema

Actualmente hay 1 usuarios viendo este tema. (0 miembros y 1 visitantes)

Temas similares

  1. Green Street Hooligans 2 (2009) [BeStDivX]
    Por Shion en el foro Drama (+)
    Respuestas: 1
    Último mensaje: 02-08-2011, 03:10:41
  2. Street Boss (2009) [aAF]
    Por hacu en el foro Thriller / Crimen (+)
    Respuestas: 7
    Último mensaje: 23-05-2011, 18:08:50
  3. Barking Water (2009) [aAF]
    Por McalvinoV en el foro Drama
    Respuestas: 2
    Último mensaje: 06-01-2011, 10:59:53
  4. Street Dreams (2009) [SCARED]
    Por McalvinoV en el foro Drama
    Respuestas: 2
    Último mensaje: 27-11-2010, 02:15:30
  5. Resurrecting the Street Walker (2009) [AVCDVD]
    Por McalvinoV en el foro Terror / Horror
    Respuestas: 0
    Último mensaje: 25-07-2010, 01:58:40

Miembros que han leído este tema: 4

Permisos de publicación

  • No puedes crear nuevos temas
  • No puedes responder temas
  • No puedes subir archivos adjuntos
  • No puedes editar tus mensajes
  •