Resultados 1 al 5 de 5

Tema: En forelskelse / Awakening (2008)

  1. #1
    Subtitulador Avatar de sirxevi
    Fecha de ingreso
    03-04-2012
    Mensajes
    783
    Agradecimientos: 3044

    Dinamarca En forelskelse / Awakening (2008)

    En forelskelse / Awakening (2008)
    Sinopsis:
    Carsten es un chico de 16 años de edad que comienza a salir con Melissa. Un día Melisa lleva a Carsten a su casa de verano para presentárselo a sus padres, y es entonces cuando Carsten y el padre de Melissa descubren que comparten algo común.
    Datos Película:
    Director: Christian Tafdrup.
    Reparto: Allan Hyde, Julie Grundtvig Wester, Lars Brygmann, Ellen Hillingsø.
    País: Dinamarca.
    Género: Drama, Mediometraje.
    Duración: 39 Minutos.
     
    Más Detalles en NordSubAdictos
    E-links:
    Bajar Película
    Torrent / Magnet:
    Bajar Película
    Subtítulos:
    Español
    Última edición por sirxevi; 23-04-2014 a las 11:52:37 Razón: Agregar afiche

  2. Los siguientes 11 usuarios agradecen el post de sirxevi:


  3. #2
    Subtitulador Avatar de sirxevi
    Fecha de ingreso
    03-04-2012
    Mensajes
    783
    Agradecimientos: 3044

    Predeterminado

    Imágenes:

    Spoiler:
    SPOILER:






    Información Técnica:

    Spoiler:
    SPOILER:
    General
    Complete name : Awakening.2008.(Danish.Short).avi
    Format : AVI
    Format/Info : Audio Video Interleave
    File size : 456 MiB
    Duration : 38mn 52s
    Overall bit rate : 1 641 Kbps

    Video
    ID : 0
    Format : MPEG-4 Visual
    Format profile : [email protected]
    Format settings, BVOP : No
    Format settings, QPel : No
    Format settings, GMC : No warppoints
    Format settings, Matrix : Default (H.263)
    Codec ID : DX50
    Codec ID/Hint : DivX 5
    Duration : 38mn 52s
    Source duration : 38mn 52s
    Bit rate : 1 500 Kbps
    Width : 720 pixels
    Height : 552 pixels
    Display aspect ratio : 1.85:1
    Frame rate : 25.000 fps
    Color space : YUV
    Chroma subsampling : 4:2:0
    Bit depth : 8 bits
    Scan type : Progressive
    Compression mode : Lossy
    Bits/(Pixel*Frame) : 0.151
    Stream size : 417 MiB (91%)
    Writing library : Lavc52.0.0

    Audio
    ID : 1
    Format : MPEG Audio
    Format version : Version 1
    Format profile : Layer 3
    Mode : Joint stereo
    Mode extension : MS Stereo
    Codec ID : 55
    Codec ID/Hint : MP3
    Duration : 38mn 51s
    Source duration : 38mn 51s
    Bit rate mode : Constant
    Bit rate : 128 Kbps
    Channel(s) : 2 channels
    Sampling rate : 48.0 KHz
    Compression mode : Lossy
    Stream size : 35.6 MiB (8%)
    Alignment : Split accross interleaves
    Interleave, duration : 24 ms (0.60 video frame)

  4. #3
    Subtitulador Avatar de federicio
    Fecha de ingreso
    13-04-2012
    Ubicación
    Provincia de Bs. As.
    Mensajes
    13,499
    Agradecimientos: 17899

    Predeterminado

    gracias por el aporte sirxevi...
    está bien enigmática la sinopsis..

  5. #4
    Subtitulador Eterno † Avatar de diodoro
    Fecha de ingreso
    20-11-2011
    Ubicación
    Merlo
    Edad
    78
    Mensajes
    2,688
    Agradecimientos: 1150


    Seguir a diodoro en Twitter

    Predeterminado

    Es muy interesante como se desarrolla. Para mi el final no está a la altura de lo anterior. Un saludo.
    Todo tendrá su precio porque nada vale. Oscar Wilde.
    __________________________________________________ _______________________
    Subtitulos que necesitan corrección
    https://www.subadictos.net/foros/show...ulos+necesitan

  6. #5
    Adicto Sin Retorno Avatar de barju
    Fecha de ingreso
    25-05-2010
    Ubicación
    buenos aires
    Mensajes
    1,232
    Agradecimientos: 379

    Predeterminado

    gracias sir!!! ya me la llevo...

Información de tema

Usuarios viendo este tema

Actualmente hay 1 usuarios viendo este tema. (0 miembros y 1 visitantes)

Temas similares

  1. The Awakening (2011)
    Por Simonrag en el foro Thriller / Crimen (+)
    Respuestas: 41
    Último mensaje: 18-07-2020, 11:19:19
  2. Underworld: Awakening (2012)
    Por McalvinoV en el foro Acción (+)
    Respuestas: 28
    Último mensaje: 17-04-2017, 11:43:09
  3. Omen IV: The Awakening / The Omen IV: The Awakening (1991)
    Por Marime en el foro Terror / Horror (+)
    Respuestas: 2
    Último mensaje: 29-05-2012, 13:55:33
  4. The Awakening (2011)
    Por McalvinoV en el foro Thriller / Crimen (+)
    Respuestas: 2
    Último mensaje: 14-03-2012, 16:54:24

Miembros que han leído este tema: 4

Permisos de publicación

  • No puedes crear nuevos temas
  • No puedes responder temas
  • No puedes subir archivos adjuntos
  • No puedes editar tus mensajes
  •