Resultados 1 al 2 de 2

Tema: Familien Gregersen / Lost Generation (2004)

  1. #1
    Subtitulador Avatar de sirxevi
    Fecha de ingreso
    03-04-2012
    Mensajes
    1,042
    Agradecimientos: 3015

    Dinamarca Familien Gregersen / Lost Generation (2004)

    Familien Gregersen / Lost Generation (2004)
    Sinopsis:
    Una adaptación de las cuatro novelas Christian Kampmann sobre las dos décadas, desde 1954 hasta 1974, vividas por los cinco hijos e hijas de la familia Gregersen.
    Datos Película:
    Director: Charlotte Sachs Bostrup.
    Reparto: Steen Springborg, Pia Vieth, Thomas Levin, Laura Drasbæk, Kristian Ibler, Mette Gregersen, Sofie Lassen-Kahlke, Micky Skeel Hansen, Robert Hansen, Kirsten Norholt, Peter Hesse Overgaard, Nastja Arcel, Kaya Brüel, Katrine Bach, Trine Appel, Frank Thiel.
    País: Dinamarca.
    Género: Drama.
    Duración: 210 Minutos.
    Más Detalles en Film Affinity
     
    Más Detalles en NordSubAdictos
    E-links:
    No Disponible
    Torrent / Magnet:
    Bajar Película
    Subtítulos:
    Bajar Subtítulos en Inglés
    Descargas Directas:

    MEGA
    https://mega.co.nz/#!YlEX2Zoa!ECSsOK5yeDqyvmFcSkzavDFCgcGXqkRZOB8fBw7CEQQ
    https://mega.co.nz/#!h1EA2CzJ!UiOjhMoPU6GDMHJi4uJmdydKEkbOkNJd_ahYIKmPhpg
    Última edición por sirxevi; 23-04-2014 a las 15:22:52

  2. Los siguientes 4 usuarios agradecen el post de sirxevi:


  3. #2
    Subtitulador Avatar de sirxevi
    Fecha de ingreso
    03-04-2012
    Mensajes
    1,042
    Agradecimientos: 3015

    Predeterminado

    Tráiler:



    Información Técnica:
    Spoiler:
    SPOILER:
    General
    Complete name : Disc 1.avi
    Format : AVI
    Format/Info : Audio Video Interleave
    File size : 699 MiB
    Duration : 1h 48mn
    Overall bit rate : 899 Kbps
    Writing application : transcode-1.0.6rc3

    Video
    ID : 0
    Format : MPEG-4 Visual
    Format profile : Advanced [email protected]
    Format settings, BVOP : 1
    Format settings, QPel : No
    Format settings, GMC : No warppoints
    Format settings, Matrix : Default (H.263)
    Codec ID : XVID
    Codec ID/Hint : XviD
    Duration : 1h 48mn
    Bit rate : 761 Kbps
    Width : 624 pixels
    Height : 256 pixels
    Display aspect ratio : 2.40:1
    Frame rate : 25.000 fps
    Color space : YUV
    Chroma subsampling : 4:2:0
    Bit depth : 8 bits
    Scan type : Progressive
    Compression mode : Lossy
    Bits/(Pixel*Frame) : 0.191
    Stream size : 592 MiB (85%)
    Writing library : XviD 1.1.2 (UTC 2006-11-01)

    Audio
    ID : 1
    Format : MPEG Audio
    Format version : Version 1
    Format profile : Layer 3
    Mode : Joint stereo
    Codec ID : 55
    Codec ID/Hint : MP3
    Duration : 1h 48mn
    Bit rate mode : Constant
    Bit rate : 128 Kbps
    Channel(s) : 2 channels
    Sampling rate : 44.1 KHz
    Compression mode : Lossy
    Stream size : 99.5 MiB (14%)
    Alignment : Split accross interleaves
    Interleave, duration : 40 ms (1.00 video frame)
    Writing library : LAME3.98
    Última edición por sirxevi; 23-04-2014 a las 15:14:21 Razón: Agregar Información

Información de tema

Usuarios viendo este tema

Actualmente hay 1 usuarios viendo este tema. (0 miembros y 1 visitantes)

Temas similares

  1. Lost: 5ª Temporada (2004 - 2010) (+)
    Por japezoa en el foro Temporadas Finalizadas
    Respuestas: 6
    Último mensaje: 29-05-2020, 19:55:48
  2. Lost: 4ª. Temporada (2004 - 2010) (+)
    Por japezoa en el foro Temporadas Finalizadas
    Respuestas: 4
    Último mensaje: 29-05-2020, 19:43:42

Miembros que han leído este tema: 4

Permisos de publicación

  • No puedes crear nuevos temas
  • No puedes responder temas
  • No puedes subir archivos adjuntos
  • No puedes editar tus mensajes
  •