Resultados 1 al 6 de 6

Tema: Sorg og glæde / Sorrow and Joy (2013)

  1. #1
    Subtitulador Avatar de sirxevi
    Fecha de ingreso
    03-04-2012
    Mensajes
    783
    Agradecimientos: 3041

    Dinamarca Sorg og glæde / Sorrow and Joy (2013)

    Sorg og glæde / Sorrow and Joy (2013) [GGW]
    Sinopsis:
    El cineasta Johannes y su mujer, la profesora de escuela Signe, viven la mayor pena y trance que uno pueda imaginar. Igualmente, en toda su desesperación, tienen que intentar encontrar el amor mutuo y maduro para asi poder continuar con su vida después de la muerte.
    Datos Película:
    Director: Nils Malmros.
    Reparto: Jakob Cedergren, Helle Fagralid, Nicolas Bro, Ida Dwinger, Kristian Halken, Maja Dybboe.
    País: Dinamarca.
    Género: Drama.
    Duración: 107 Minutos.
    Más Detalles en Film Affinity
     
    Más Detalles en NordSubAdictos
    E-links:
    Bajar Película
    Torrent / Magnet:
    Bajar Película
    Subtítulos:
    Español
    Archivos adjuntados Archivos adjuntados
    Última edición por japezoa; 24-08-2014 a las 04:43:22

  2. Los siguientes 11 usuarios agradecen el post de sirxevi:


  3. #2
    Subtitulador Avatar de sirxevi
    Fecha de ingreso
    03-04-2012
    Mensajes
    783
    Agradecimientos: 3041

    Predeterminado

    Tráiler:

    ERROR: If you can see this, then YouTube is down or you don't have Flash installed.


    Información Técnica:
    Spoiler:
    SPOILER:
    General
    Complete name : Sorg.Og.Glæde.(2013).DANiSH.DVDRip.x264-GGW.mp4
    Format : MPEG-4
    Format profile : Base Media
    Codec ID : isom
    File size : 700 MiB
    Duration : 1h 42mn
    Overall bit rate mode : Variable
    Overall bit rate : 953 Kbps
    Encoded date : UTC 2014-03-13 20:41:33
    Tagged date : UTC 2014-03-13 20:41:33

    Video
    ID : 1
    Format : AVC
    Format/Info : Advanced Video Codec
    Format profile : [email protected]
    Format settings, CABAC : Yes
    Format settings, ReFrames : 4 frames
    Codec ID : avc1
    Codec ID/Info : Advanced Video Coding
    Duration : 1h 42mn
    Bit rate : 817 Kbps
    Maximum bit rate : 7 181 Kbps
    Width : 704 pixels
    Height : 368 pixels
    Display aspect ratio : 1.913
    Frame rate mode : Constant
    Frame rate : 25.000 fps
    Color space : YUV
    Chroma subsampling : 4:2:0
    Bit depth : 8 bits
    Scan type : Progressive
    Bits/(Pixel*Frame) : 0.126
    Stream size : 600 MiB (86%)
    Title : Video
    Writing library : x264 core 133 r2334 a3ac64b
    Encoding settings : cabac=1 / ref=2 / deblock=1:-1:-1 / analyse=0x3:0x113 / me=hex / subme=6 / psy=1 / psy_rd=1.00:0.15 / mixed_ref=1 / me_range=16 / chroma_me=1 / trellis=1 / 8x8dct=1 / cqm=0 / deadzone=21,11 / fast_pskip=1 / chroma_qp_offset=-3 / threads=6 / lookahead_threads=1 / sliced_threads=0 / nr=0 / decimate=1 / interlaced=0 / bluray_compat=0 / constrained_intra=0 / bframes=3 / b_pyramid=2 / b_adapt=1 / b_bias=0 / direct=1 / weightb=1 / open_gop=0 / weightp=1 / keyint=250 / keyint_min=25 / scenecut=40 / intra_refresh=0 / rc_lookahead=30 / rc=2pass / mbtree=1 / bitrate=817 / ratetol=1.0 / qcomp=0.60 / qpmin=0 / qpmax=69 / qpstep=4 / cplxblur=20.0 / qblur=0.5 / ip_ratio=1.40 / aq=1:1.00
    Encoded date : UTC 2014-03-13 20:41:33
    Tagged date : UTC 2014-03-13 20:41:52

    Audio
    ID : 2
    Format : AAC
    Format/Info : Advanced Audio Codec
    Format profile : LC
    Codec ID : 40
    Duration : 1h 42mn
    Bit rate mode : Variable
    Bit rate : 132 Kbps
    Maximum bit rate : 181 Kbps
    Channel(s) : 2 channels
    Channel positions : Front: L R
    Sampling rate : 48.0 KHz
    Compression mode : Lossy
    Delay relative to video : 80ms
    Stream size : 97.3 MiB (14%)
    Language : Danish
    Encoded date : UTC 2014-03-13 20:41:47
    Tagged date : UTC 2014-03-13 20:41:52
    Última edición por sirxevi; 23-04-2014 a las 15:09:27 Razón: Agregar Información

  4. #3
    Adicto Sin Retorno Avatar de rosebud2
    Fecha de ingreso
    03-06-2012
    Mensajes
    686
    Agradecimientos: 619

    Predeterminado

    ¡¡parece muy interesante !! gracias xevi

  5. #4
    Adicto Sin Retorno Avatar de barju
    Fecha de ingreso
    25-05-2010
    Ubicación
    buenos aires
    Mensajes
    1,232
    Agradecimientos: 379

    Predeterminado

    mmm... me gusta... buena pareja la de los protagonistas... el es un gran actor y ella bellisima!!! gracias Sir!!!

  6. #5
    Adicto Sin Retorno Avatar de hm3mg
    Fecha de ingreso
    30-07-2011
    Ubicación
    Kuartel Gral de KAOS
    Mensajes
    2,486
    Agradecimientos: 1128

    Predeterminado

    Cita Iniciado por barju Ver mensaje
    y ella bellisima!!!
    Me tiene enamorado desde que la vi en Blekingegade.


  7. #6
    Subtitulador Avatar de federicio
    Fecha de ingreso
    13-04-2012
    Ubicación
    Provincia de Bs. As.
    Mensajes
    13,324
    Agradecimientos: 17605

    Predeterminado

    recién vi esta película.. gracias xevi..!
    recién la puse a bajar y lo está haciendo..

Información de tema

Usuarios viendo este tema

Actualmente hay 1 usuarios viendo este tema. (0 miembros y 1 visitantes)

Temas similares

  1. Känn ingen sorg / Sorrow and Joy (2013)
    Por luisIreneo en el foro Drama (+)
    Respuestas: 11
    Último mensaje: 13-06-2015, 20:40:17
  2. Children of Sorrow (2014)
    Por the darkness en el foro Terror / Horror
    Respuestas: 2
    Último mensaje: 24-04-2014, 21:19:13

Miembros que han leído este tema: 6

Permisos de publicación

  • No puedes crear nuevos temas
  • No puedes responder temas
  • No puedes subir archivos adjuntos
  • No puedes editar tus mensajes
  •