Resultados 1 al 3 de 3

Tema: Kris / Crisis (1946)

  1. #1
    Subtitulador Avatar de sirxevi
    Fecha de ingreso
    03-04-2012
    Mensajes
    783
    Agradecimientos: 3043

    Suecia Kris / Crisis (1946)

    Kris / Crisis (1946)
    Sinopsis:
    Nelly tiene 18 años y vive en casa de su madre adoptiva. La adolescente no deja de soñar con el que será su primer baile, organizado por el ayuntamiento de su pequeña ciudad. La chica escribe a su madre Jenny, que vive en Estocolmo, para conseguir un vestido bonito. Jenny aprovechará la ocasión para visitar a su hija, acompañada de su amante Jack, un actor fracasado y suicida.
    Datos Película:
    Director: Ingmar Bergman.
    Reparto: Allan Bohlin, Julia Cæsar, Ernst Eklund, Karl Erik Flens, Svea Holst, Inga Landgré, Arne Lindblad, Dagny Lind, Marianne Löfgren, Stig Olin, Signe Wirff.
    País: Suecia.
    Género: Drama.
    Duración: 93 Minutos.
    Más Detalles en Film Affinity
     
    Más Detalles en NordSubAdictos
    E-links:
    Bajar Película
    Torrent / Magnet:
    Bajar Película
    Subtítulos:
    Español
    Descargas Directas:

    MEGA
    https://mega.co.nz/#!pglWnYLL!DcpxYox9SCpBf_2d1pCzXE4R-T6_JZx_tR0NUPasSME
    Última edición por sirxevi; 17-05-2014 a las 18:02:34 Razón: Agregar link DD.

  2. Los siguientes 8 usuarios agradecen el post de sirxevi:


  3. #2
    Subtitulador Avatar de sirxevi
    Fecha de ingreso
    03-04-2012
    Mensajes
    783
    Agradecimientos: 3043

    Predeterminado

    Imágenes:

    Spoiler:
    SPOILER:









    Información Técnica:

    Spoiler:
    SPOILER:
    General
    Complete name : Crisis (1946) [Kris].avi
    Format : AVI
    Format/Info : Audio Video Interleave
    File size : 702 MiB
    Duration : 1h 28mn
    Overall bit rate : 1 105 Kbps
    Writing library : VirtualDub build 16297/release

    Video
    ID : 0
    Format : MPEG-4 Visual
    Format settings, BVOP : Yes
    Format settings, QPel : No
    Format settings, GMC : No warppoints
    Format settings, Matrix : Default (H.263)
    Codec ID : DIVX
    Codec ID/Info : Project Mayo
    Codec ID/Hint : DivX 4
    Duration : 1h 28mn
    Bit rate : 936 Kbps
    Width : 576 pixels
    Height : 416 pixels
    Display aspect ratio : 1.385
    Frame rate : 25.000 fps
    Color space : YUV
    Chroma subsampling : 4:2:0
    Bit depth : 8 bits
    Scan type : Progressive
    Compression mode : Lossy
    Bits/(Pixel*Frame) : 0.156
    Stream size : 594 MiB (85%)

    Audio
    ID : 1
    Format : MPEG Audio
    Format version : Version 1
    Format profile : Layer 3
    Mode : Joint stereo
    Mode extension : MS Stereo
    Codec ID : 55
    Codec ID/Hint : MP3
    Duration : 1h 28mn
    Bit rate mode : Constant
    Bit rate : 160 Kbps
    Channel count : 2 channels
    Sampling rate : 48.0 KHz
    Compression mode : Lossy
    Stream size : 102 MiB (14%)
    Alignment : Split accross interleaves
    Interleave, duration : 40 ms (1.00 video frame)
    Interleave, preload duration : 500 ms
    Última edición por sirxevi; 16-05-2014 a las 16:06:49 Razón: Agregar Información

  4. #3
    Subtitulador Avatar de sirxevi
    Fecha de ingreso
    03-04-2012
    Mensajes
    783
    Agradecimientos: 3043

    Predeterminado

    Agregado link descarga directa.

Información de tema

Usuarios viendo este tema

Actualmente hay 1 usuarios viendo este tema. (0 miembros y 1 visitantes)

Temas similares

  1. Kris Meeke prueba el Citroën
    Por jmanuellopez76 en el foro Deportes
    Respuestas: 5
    Último mensaje: 26-09-2015, 20:13:40
  2. Cumpleaños BMW Serie 3: Sin crisis de los 40
    Por jmanuellopez76 en el foro Cultura
    Respuestas: 5
    Último mensaje: 16-08-2015, 19:31:28
  3. Torrente 4: Lethal Crisis / Crisis Letal (2011)
    Por pepe2982 en el foro Comedia (+)
    Respuestas: 28
    Último mensaje: 11-10-2014, 09:39:12
  4. Crisis (1950)
    Por THE. en el foro Thriller / Crimen (+)
    Respuestas: 2
    Último mensaje: 18-07-2013, 11:33:15

Miembros que han leído este tema: 6

Permisos de publicación

  • No puedes crear nuevos temas
  • No puedes responder temas
  • No puedes subir archivos adjuntos
  • No puedes editar tus mensajes
  •