Resultados 1 al 2 de 2

Tema: Det regnar på vår kärlek / It Rains on Our Love (1946)

  1. #1
    Subtitulador Avatar de sirxevi
    Fecha de ingreso
    03-04-2012
    Mensajes
    1,042
    Agradecimientos: 3024

    Suecia Det regnar på vår kärlek / It Rains on Our Love (1946)

    Det regnar på vår kärlek / It Rains on Our Love (1946)
    Sinopsis:
    David, recién salido de la cárcel, y Maggie, que ignora quien es el padre del hijo que espera, deciden unir sus destinos cuando tropiezan el uno con el otro en una estación ferroviaria.
    Datos Película:
    Director: Ingmar Bergman.
    Reparto: Barbro Kollberg, Birger Malmsten, Gösta Cederlund, Ludde Gentzel, Douglas Håge, Benkt-Åke Benktsson, Sture Ericson, Ulf Johansson, Julia Cæsar, Gunnar Björnstrand.
    País: Suecia.
    Género: Drama, Romance.
    Duración: 95 Minutos.
    Más Detalles en Film Affinity
     
    Más Detalles en NordSubAdictos
    E-links:
    Bajar Película
    Torrent / Magnet:
    Bajar Película
    Subtítulos:
    Bajar Subtítulos en Español
    Descargas Directas:

    MEGA
    https://mega.co.nz/#!UlUUzDDS!ykOzdvbd928Oijvy7pa3MV3Swk6dS4gbpKExSmLhK9g
    Última edición por sirxevi; 21-05-2014 a las 05:59:54 Razón: Enlazar con Filmografía.

  2. Los siguientes 4 usuarios agradecen el post de sirxevi:


  3. #2
    Subtitulador Avatar de sirxevi
    Fecha de ingreso
    03-04-2012
    Mensajes
    1,042
    Agradecimientos: 3024

    Predeterminado

    Imágenes:

    Spoiler:
    SPOILER:





    Información Técnica:

    Spoiler:
    SPOILER:
    General
    Complete name : Llueve sobre nuestro amor (1946).avi
    Format : AVI
    Format/Info : Audio Video Interleave
    File size : 1.45 GiB
    Duration : 1h 31mn
    Overall bit rate : 2 274 Kbps
    Writing application : VirtualDubMod 1.5.10.2 (build 2540/release)
    Writing library : VirtualDubMod build 2540/release

    Video
    ID : 0
    Format : MPEG-4 Visual
    Format profile : Advanced [email protected]
    Format settings, BVOP : 2
    Format settings, QPel : No
    Format settings, GMC : No warppoints
    Format settings, Matrix : Default (MPEG)
    Codec ID : XVID
    Codec ID/Hint : XviD
    Duration : 1h 31mn
    Bit rate : 2 011 Kbps
    Width : 672 pixels
    Height : 512 pixels
    Display aspect ratio : 4:3
    Frame rate : 25.000 fps
    Color space : YUV
    Chroma subsampling : 4:2:0
    Bit depth : 8 bits
    Scan type : Progressive
    Compression mode : Lossy
    Bits/(Pixel*Frame) : 0.234
    Stream size : 1.28 GiB (88%)
    Writing library : XviD 1.1.2 (UTC 2006-11-01)

    Audio
    ID : 1
    Format : AC-3
    Format/Info : Audio Coding 3
    Mode extension : CM (complete main)
    Format settings, Endianness : Big
    Codec ID : 2000
    Duration : 1h 31mn
    Bit rate mode : Constant
    Bit rate : 256 Kbps
    Channel count : 2 channels
    Channel positions : Front: L R
    Sampling rate : 48.0 KHz
    Bit depth : 16 bits
    Compression mode : Lossy
    Stream size : 167 MiB (11%)
    Alignment : Split accross interleaves
    Interleave, duration : 96 ms (2.40 video frames)
    Interleave, preload duration : 96 ms
    Última edición por sirxevi; 16-05-2014 a las 16:07:56 Razón: Agregar Información

Información de tema

Usuarios viendo este tema

Actualmente hay 1 usuarios viendo este tema. (0 miembros y 1 visitantes)

Temas similares

  1. En lektion i kärlek / A Lesson in Love (1954)
    Por sirxevi en el foro Comedia (+)
    Respuestas: 1
    Último mensaje: 16-05-2014, 15:59:59
  2. Mr. Morgan's Last Love / Last Love (2013) [ROVERS]
    Por the darkness en el foro Comedia (+)
    Respuestas: 20
    Último mensaje: 06-01-2014, 21:36:23
  3. The Rains of Ranchipur (1955)
    Por HJCOS en el foro Drama (+)
    Respuestas: 0
    Último mensaje: 23-10-2013, 23:16:43
  4. Love Sick Love (2012) [FooKaS]
    Por McalvinoV en el foro Comedia
    Respuestas: 1
    Último mensaje: 28-04-2013, 02:14:36
  5. Respuestas: 2
    Último mensaje: 19-02-2012, 19:43:58

Miembros que han leído este tema: 9

Permisos de publicación

  • No puedes crear nuevos temas
  • No puedes responder temas
  • No puedes subir archivos adjuntos
  • No puedes editar tus mensajes
  •