Resultados 1 al 3 de 3

Tema: Musik i mörker / Music in Darkness (1948)

  1. #1
    Subtitulador Avatar de sirxevi
    Fecha de ingreso
    03-04-2012
    Mensajes
    1,042
    Agradecimientos: 3024

    Suecia Musik i mörker / Music in Darkness (1948)

    Musik i mörker / Music in Darkness (1948)
    Sinopsis:
    Un soldado, que se ha quedado ciego a causa de un accidente, encuentra trabajo como pianista en un restaurante, pero no consigue acostumbrarse a que lo vean como un inválido. Una joven obrera se fijará en él y tratará de reconfortarlo.
    Datos Película:
    Director: Ingmar Bergman.
    Reparto: Mai Zetterling, Birger Malmsten, Rune Andréasson, Ulla Andreasson, Gunnar Björnstrand, Hilda Borgström, Åke Claesson, Bengt Eklund, John Elfström.
    País: Suecia.
    Género: Drama.
    Duración: 87 Minutos.
    Más Detalles en Film Affinity
     
    Más Detalles en NordSubAdictos
    E-links:
    Bajar Película
    Torrent / Magnet:
    No Disponible
    Subtítulos:
    Bajar Subtítulos en Español
    Descargas Directas:

    MEGA
    https://mega.co.nz/#!JhkmQTya!T4s2cnIXMd8BBMOty0sLugc1aR7o4S5OSmYYTH2Qdkw
    Última edición por sirxevi; 21-05-2014 a las 06:04:51 Razón: Enlazar con Filmografía.

  2. Los siguientes 6 usuarios agradecen el post de sirxevi:


  3. #2
    Subtitulador Avatar de sirxevi
    Fecha de ingreso
    03-04-2012
    Mensajes
    1,042
    Agradecimientos: 3024

    Predeterminado

    Imágenes:

    Spoiler:
    SPOILER:









    Información Técnica:

    Spoiler:
    SPOILER:
    General
    Complete name : Música en la oscuridad (1948).avi
    Format : AVI
    Format/Info : Audio Video Interleave
    File size : 705 MiB
    Duration : 1h 24mn
    Overall bit rate mode : Variable
    Overall bit rate : 1 172 Kbps
    Writing application : VirtualDubMod 1.5.4.1 (build 2066/release)
    Writing library : VirtualDubMod build 2066/release

    Video
    ID : 0
    Format : MPEG-4 Visual
    Format profile : [email protected]
    Format settings, BVOP : 2
    Format settings, QPel : No
    Format settings, GMC : No warppoints
    Format settings, Matrix : Default (H.263)
    Codec ID : XVID
    Codec ID/Hint : XviD
    Duration : 1h 24mn
    Bit rate : 1 062 Kbps
    Width : 512 pixels
    Height : 384 pixels
    Display aspect ratio : 4:3
    Frame rate : 25.000 fps
    Color space : YUV
    Chroma subsampling : 4:2:0
    Bit depth : 8 bits
    Scan type : Progressive
    Compression mode : Lossy
    Bits/(Pixel*Frame) : 0.216
    Stream size : 638 MiB (91%)
    Writing library : XviD 1.1.0 Beta2 (UTC 2005-04-04)

    Audio
    ID : 1
    Format : MPEG Audio
    Format version : Version 1
    Format profile : Layer 3
    Mode : Joint stereo
    Mode extension : MS Stereo
    Codec ID : 55
    Codec ID/Hint : MP3
    Duration : 1h 24mn
    Bit rate mode : Variable
    Bit rate : 97.9 Kbps
    Nominal bit rate : 112 Kbps
    Channel count : 2 channels
    Sampling rate : 44.1 KHz
    Compression mode : Lossy
    Stream size : 58.9 MiB (8%)
    Alignment : Aligned on interleaves
    Interleave, duration : 26 ms (0.65 video frame)
    Interleave, preload duration : 119 ms
    Writing library : LAME3.90.
    Encoding settings : -m j -V 4 -q 2 -lowpass 16 --abr 112
    Última edición por sirxevi; 16-05-2014 a las 16:08:56 Razón: Agregar Información

  4. #3
    Peligrosamente Adicto Avatar de lucca26
    Fecha de ingreso
    07-03-2013
    Mensajes
    272
    Agradecimientos: 31

    Predeterminado

    Encontré este torrent, todavía no la vi, pero parece ir bien con los subs.

    https://torrentproject.se/05d6981543...06ceed9bc895a/

    Saludos

  5. Los siguientes 2 usuarios agradecen el post de lucca26:

     mcozeti,  Ona

Información de tema

Usuarios viendo este tema

Actualmente hay 1 usuarios viendo este tema. (0 miembros y 1 visitantes)

Temas similares

  1. Music of the Heart (1999) [SSF]
    Por McalvinoV en el foro Drama
    Respuestas: 3
    Último mensaje: 11-08-2018, 15:57:47
  2. Music Box (1989) [Oldies]
    Por jquis en el foro Drama (+)
    Respuestas: 2
    Último mensaje: 25-04-2015, 04:01:54
  3. The Music Man (1962)
    Por HJCOS en el foro Musicales (+)
    Respuestas: 1
    Último mensaje: 09-04-2014, 15:24:46
  4. Respuestas: 5
    Último mensaje: 24-02-2014, 16:20:11

Miembros que han leído este tema: 4

Permisos de publicación

  • No puedes crear nuevos temas
  • No puedes responder temas
  • No puedes subir archivos adjuntos
  • No puedes editar tus mensajes
  •