Resultados 1 al 2 de 2

Tema: Fängelse / Prison (1949)

  1. #1
    Subtitulador Avatar de sirxevi
    Fecha de ingreso
    03-04-2012
    Mensajes
    787
    Agradecimientos: 3032

    Suecia Fängelse / Prison (1949)

    Fängelse / Prison (1949)
    Sinopsis:
    Un director de cine recibe la visita de su antiguo profesor de matemáticas que sale de un asilo. Éste le propone realizar una película sobre el tema: "Nuestro mundo es el infierno y el diablo lo dirige todo".
    Datos Película:
    Director: Ingmar Bergman.
    Reparto: Doris Svedlund, Birger Malmsten, Eva Henning, Stig Olin, Hasse Ekman, Irma Christenson, Anders Henrikson, Marianne Löfgren, Bibi Lindqvist, Curt Masreliez.
    País: Suecia.
    Género: Drama.
    Duración: 76 Minutos.
    Más Detalles en Film Affinity
     
    Más Detalles en NordSubAdictos
    E-links:
    Bajar Película
    Torrent / Magnet:
    Bajar Película
    Subtítulos:
    Español
    Descargas Directas:

    MEGA
    https://mega.co.nz/#!s1d1jCDJ!POcZTmK6wQzLngQ6xjNFkTfzV6ElSGyS2zT7dcdMpZw
    Última edición por sirxevi; 21-05-2014 a las 06:04:17 Razón: Enlazar con Filmografía.

  2. Los siguientes 7 usuarios agradecen el post de sirxevi:


  3. #2
    Subtitulador Avatar de sirxevi
    Fecha de ingreso
    03-04-2012
    Mensajes
    787
    Agradecimientos: 3032

    Predeterminado

    Imágenes:

    Spoiler:
    SPOILER:









    Información Técnica:

    Spoiler:
    SPOILER:
    General
    Complete name : Prision (1948).avi
    Format : AVI
    Format/Info : Audio Video Interleave
    File size : 700 MiB
    Duration : 1h 15mn
    Overall bit rate : 1 301 Kbps
    Writing application : VirtualDubMod 1.5.4.1 (build 2178/release)
    Writing library : VirtualDubMod build 2178/release

    Video
    ID : 0
    Format : MPEG-4 Visual
    Format profile : Advanced [email protected]
    Format settings, BVOP : 1
    Format settings, QPel : No
    Format settings, GMC : No warppoints
    Format settings, Matrix : Custom
    Codec ID : XVID
    Codec ID/Hint : XviD
    Duration : 1h 15mn
    Bit rate : 1 166 Kbps
    Width : 624 pixels
    Height : 464 pixels
    Display aspect ratio : 4:3
    Frame rate : 25.000 fps
    Color space : YUV
    Chroma subsampling : 4:2:0
    Bit depth : 8 bits
    Scan type : Progressive
    Compression mode : Lossy
    Bits/(Pixel*Frame) : 0.161
    Stream size : 627 MiB (90%)
    Writing library : XviD 1.0.3 (UTC 2004-12-20)

    Audio
    ID : 1
    Format : MPEG Audio
    Format version : Version 1
    Format profile : Layer 3
    Mode : Joint stereo
    Mode extension : MS Stereo
    Codec ID : 55
    Codec ID/Hint : MP3
    Duration : 1h 15mn
    Bit rate mode : Constant
    Bit rate : 128 Kbps
    Channel count : 2 channels
    Sampling rate : 48.0 KHz
    Compression mode : Lossy
    Stream size : 68.9 MiB (10%)
    Alignment : Aligned on interleaves
    Interleave, duration : 80 ms (2.00 video frames)
    Interleave, preload duration : 504 ms
    Writing library : LAME3.96r
    Encoding settings : -m j -V 4 -q 2 -lowpass 17.5 -b 128
    Language : Svenska
    Última edición por sirxevi; 16-05-2014 a las 16:09:54 Razón: Agregar Información

Información de tema

Usuarios viendo este tema

Actualmente hay 1 usuarios viendo este tema. (0 miembros y 1 visitantes)

Temas similares

  1. Prison Break: Sequel: Miniserie (2017) (+)
    Por gallia en el foro Temporadas Finalizadas
    Respuestas: 112
    Último mensaje: 16-02-2020, 16:55:24
  2. Prison (1987)
    Por jquis en el foro Terror / Horror (+)
    Respuestas: 6
    Último mensaje: 07-06-2015, 02:58:41
  3. El túnel de los huesos / Prison Escape (2011)
    Por supernatural en el foro Drama (+)
    Respuestas: 32
    Último mensaje: 09-05-2013, 04:06:57
  4. El patio de mi cárcel / My Prison Yard (2008)
    Por supernatural en el foro Drama (+)
    Respuestas: 5
    Último mensaje: 01-03-2012, 09:32:44

Miembros que han leído este tema: 2

Permisos de publicación

  • No puedes crear nuevos temas
  • No puedes responder temas
  • No puedes subir archivos adjuntos
  • No puedes editar tus mensajes
  •