Resultados 1 al 2 de 2

Tema: Till glädje / To Joy (1950)

  1. #1
    Subtitulador Avatar de sirxevi
    Fecha de ingreso
    03-04-2012
    Mensajes
    783
    Agradecimientos: 3070

    Suecia Till glädje / To Joy (1950)

    Till glädje / To Joy (1950)
    Sinopsis:
    Stig y Martha Eriksson forman una joven pareja de violinistas que tocan en la misma orquesta. Mientras Stig ensaya la novena Sinfonía de Beethoven, el joven violonista se entera de la muerte accidental de su mujer. Una vez en casa, Stig recuerda su encuentro con Martha, así como momentos privilegiados de su felicidad pasada.
    Datos Película:
    Director: Ingmar Bergman.
    Reparto: Maj-Britt Nilsson, Stig Olin, Victor Sjöström, Birger Malmsten, John Ekman, Margit Carlqvist.
    País: Suecia.
    Género: Drama.
    Duración: 98 Minutos.
    Más Detalles en Film Affinity
     
    Más Detalles en NordSubAdictos
    E-links:
    Bajar Película
    Torrent / Magnet:
    No Disponible
    Subtítulos:
    Español
    Descargas Directas:

    MEGA
    https://mega.co.nz/#!As0yHSxb!rLfxdoyhaiBRvE6OJf4-Jdws3mVPbc8CGj28wUHn8Hs
    Última edición por sirxevi; 21-05-2014 a las 06:02:03 Razón: Enlazar con Filmografía.

  2. Los siguientes 4 usuarios agradecen el post de sirxevi:

     chus,  dff,  nan24you,  peliac

  3. #2
    Subtitulador Avatar de sirxevi
    Fecha de ingreso
    03-04-2012
    Mensajes
    783
    Agradecimientos: 3070

    Predeterminado

    Imágenes:

    Spoiler:
    SPOILER:









    Información Técnica:

    Spoiler:
    SPOILER:
    General
    Complete name : Hacia la felicidad (1949).avi
    Format : AVI
    Format/Info : Audio Video Interleave
    File size : 695 MiB
    Duration : 1h 34mn
    Overall bit rate : 1 026 Kbps
    Writing application : Nandub v1.0rc2
    Writing library : Nandub build 1853/release

    Video
    ID : 0
    Format : MPEG-4 Visual
    Format settings, BVOP : 1
    Format settings, QPel : No
    Format settings, GMC : 2 warppoints
    Format settings, Matrix : Default (H.263)
    Muxing mode : Packed bitstream
    Codec ID : DX50
    Codec ID/Hint : DivX 5
    Duration : 1h 34mn
    Bit rate : 901 Kbps
    Width : 560 pixels
    Height : 416 pixels
    Display aspect ratio : 4:3
    Frame rate : 25.000 fps
    Color space : YUV
    Chroma subsampling : 4:2:0
    Bit depth : 8 bits
    Scan type : Progressive
    Compression mode : Lossy
    Bits/(Pixel*Frame) : 0.155
    Stream size : 610 MiB (88%)
    Writing library : DivX 5.0.2 (UTC 2002-05-16)

    Audio
    ID : 1
    Format : MPEG Audio
    Format version : Version 1
    Format profile : Layer 3
    Codec ID : 55
    Codec ID/Hint : MP3
    Duration : 1h 34mn
    Bit rate mode : Constant
    Bit rate : 112 Kbps
    Channel count : 1 channel
    Sampling rate : 48.0 KHz
    Compression mode : Lossy
    Stream size : 75.9 MiB (11%)
    Alignment : Aligned on interleaves
    Interleave, duration : 24 ms (0.60 video frame)
    Interleave, preload duration : 480 ms
    Writing library : LAME3.91
    Encoding settings : -m m -V 4 -q 5 -lowpass 19.4 -b 112
    Última edición por sirxevi; 16-05-2014 a las 16:10:45 Razón: Agregar Información

Información de tema

Usuarios viendo este tema

Actualmente hay 1 usuarios viendo este tema. (0 miembros y 1 visitantes)

Temas similares

  1. 15 Till Midnight (2010)
    Por McalvinoV en el foro Sci-Fi
    Respuestas: 8
    Último mensaje: 29-12-2014, 17:01:30
  2. Can I Do It... 'Till I Need Glasses? (1977)
    Por japezoa en el foro Comedia
    Respuestas: 0
    Último mensaje: 15-08-2014, 15:19:56
  3. Upp till kamp / How Soon is Now?: Temporada Única (2007) (+)
    Por pepe54 en el foro Temporadas Finalizadas
    Respuestas: 14
    Último mensaje: 04-04-2014, 11:44:40
  4. Don't Open Till Christmas (1984)
    Por McalvinoV en el foro Terror / Horror
    Respuestas: 0
    Último mensaje: 21-11-2011, 18:52:19
  5. Fyra år till / Four More Years (2010)
    Por pepe2982 en el foro Drama (+)
    Respuestas: 2
    Último mensaje: 21-10-2011, 02:28:40

Miembros que han leído este tema: 2

Permisos de publicación

  • No puedes crear nuevos temas
  • No puedes responder temas
  • No puedes subir archivos adjuntos
  • No puedes editar tus mensajes
  •