Resultados 1 al 2 de 2

Tema: Sånt händer inte här / This Can't Happen Here (1950)

  1. #1
    Subtitulador Avatar de sirxevi
    Fecha de ingreso
    03-04-2012
    Mensajes
    783
    Agradecimientos: 3072

    Suecia Sånt händer inte här / This Can't Happen Here (1950)

    Sånt händer inte här / This Can't Happen Here (1950)
    Sinopsis:
    Liquidanzia, imaginario país vecino de Suecia, sufre una sangrienta dictadura, razón por la cual Suecia se convierte en destino de refugiados, pero también de los espías que intentan capturarlos. Entre esos refugiados está Vera (Signe Hasso), que espera la llegada de sus padres de un momento a otro, si es que logran escapar; por otra parte, creyendo que su marido, un espía de la dictadura (Ulf Palme), estaba muerto, Vera había estado saliendo con un detective de la policía sueca (Alf Kjellin).
    Datos Película:
    Director: Ingmar Bergman.
    Reparto: Signe Hasso, Alf Kjellin, Ulf Palme, Gösta Cederlund, Yngve Nordwall, Ragnar Klange, Sylvia Täl, Edmar Kuus, Rudolf Lipp, Lillie Wästfeldt, Segol Mann, Gregor Dahlmann.
    País: Suecia.
    Género: Drama.
    Duración: 84 Minutos.
    Más Detalles en Film Affinity
     
    Más Detalles en NordSubAdictos
    E-links:
    Bajar Película
    Torrent / Magnet:
    Bajar Película
    Subtítulos:
    Español
    Descargas Directas:

    MEGA
    https://mega.co.nz/#!RsUklLSJ!2dOb2F2adwMQwwqtT8TjdiAFl5ZdHCYJNizCwwJ8jDk
    Última edición por sirxevi; 21-05-2014 a las 06:01:25 Razón: Enlazar con filmografía.

  2. Los siguientes 5 usuarios agradecen el post de sirxevi:


  3. #2
    Subtitulador Avatar de sirxevi
    Fecha de ingreso
    03-04-2012
    Mensajes
    783
    Agradecimientos: 3072

    Predeterminado

    Imágenes:

    Spoiler:
    SPOILER:









    Información Técnica:

    Spoiler:
    SPOILER:
    General
    Complete name : Esto no puede ocurrir aquí (1950).avi
    Format : AVI
    Format/Info : Audio Video Interleave
    File size : 700 MiB
    Duration : 1h 21mn
    Overall bit rate mode : Variable
    Overall bit rate : 1 207 Kbps
    Writing application : VirtualDubMod 1.5.4.1 (build 2178/release)
    Writing library : VirtualDubMod build 2178/release

    Video
    ID : 0
    Format : MPEG-4 Visual
    Format profile : Advanced [email protected]
    Format settings, BVOP : 1
    Format settings, QPel : No
    Format settings, GMC : No warppoints
    Format settings, Matrix : Custom
    Codec ID : XVID
    Codec ID/Hint : XviD
    Duration : 1h 21mn
    Bit rate : 1 089 Kbps
    Width : 608 pixels
    Height : 464 pixels
    Display aspect ratio : 4:3
    Frame rate : 25.000 fps
    Color space : YUV
    Chroma subsampling : 4:2:0
    Bit depth : 8 bits
    Scan type : Progressive
    Compression mode : Lossy
    Bits/(Pixel*Frame) : 0.154
    Stream size : 631 MiB (90%)
    Writing library : XviD 1.2.0.dev47 (UTC 2006-11-01)

    Audio
    ID : 1
    Format : MPEG Audio
    Format version : Version 1
    Format profile : Layer 3
    Mode : Joint stereo
    Mode extension : MS Stereo
    Codec ID : 55
    Codec ID/Hint : MP3
    Duration : 1h 21mn
    Bit rate mode : Variable
    Bit rate : 105 Kbps
    Nominal bit rate : 128 Kbps
    Channel count : 2 channels
    Sampling rate : 48.0 KHz
    Compression mode : Lossy
    Delay relative to video : 48ms
    Stream size : 61.0 MiB (9%)
    Alignment : Split accross interleaves
    Interleave, duration : 24 ms (0.60 video frame)
    Interleave, preload duration : 631 ms
    Writing library : LAME3.97
    Encoding settings : -m j -V 4 -q 2 -lowpass 17 --abr 128
    Última edición por sirxevi; 16-05-2014 a las 16:11:35 Razón: Agregar Información

Información de tema

Usuarios viendo este tema

Actualmente hay 1 usuarios viendo este tema. (0 miembros y 1 visitantes)

Temas similares

  1. Tore tanzt / Nothing Bad Can Happen (2013)
    Por pepe2982 en el foro Drama (+)
    Respuestas: 11
    Último mensaje: 01-01-2016, 11:28:10
  2. Accidents Happen (2009)
    Por japezoa en el foro Comedia (+)
    Respuestas: 10
    Último mensaje: 14-12-2014, 18:17:57
  3. On Our Merry Way / A Miracle Can Happen (1948)
    Por japezoa en el foro Musicales (+)
    Respuestas: 0
    Último mensaje: 17-11-2012, 00:56:45
  4. It Could Happen to You (1994)
    Por McalvinoV en el foro Comedia (+)
    Respuestas: 2
    Último mensaje: 13-11-2012, 21:44:28
  5. What's the Worst That Could Happen? (2001)
    Por McalvinoV en el foro Comedia (+)
    Respuestas: 0
    Último mensaje: 14-01-2012, 17:56:39

Miembros que han leído este tema: 2

Permisos de publicación

  • No puedes crear nuevos temas
  • No puedes responder temas
  • No puedes subir archivos adjuntos
  • No puedes editar tus mensajes
  •