Resultados 1 al 2 de 2

Tema: En lektion i kärlek / A Lesson in Love (1954)

  1. #1
    Subtitulador Avatar de sirxevi
    Fecha de ingreso
    03-04-2012
    Mensajes
    1,042
    Agradecimientos: 3024

    Suecia En lektion i kärlek / A Lesson in Love (1954)

    En lektion i kärlek / A Lesson in Love (1954)
    Sinopsis:
    El ginecólogo David Erneman y su mujer Marianne llevan quince años casados. Un verano, David tiene una aventura. Marianne, desesperada, huye de Copenhague para reanudar la relación con su ex-novio, Carl Adam. David, celoso y hastiado de su amante, sólo desea una cosa: reconquistar a su esposa. Los dos vuelven a reencontrarse en el tren que va hacia Copenhague y rememoran las escenas de su vida en común.
    Datos Película:
    Director: Ingmar Bergman.
    Reparto: Eva Dahlbeck, Gunnar Björnstrand, Yvonne Lombard, Harriet Andersson, Åke Grönberg, Olof Winnerstrand, Birgitte Reimer, John Elfström, Renée Björling, Dagmar Ebbesen, Sigge Fürst.
    País: Suecia.
    Género: Comedia, Drama.
    Duración: 96 Minutos.
    Más Detalles en Film Affinity
     
    Más Detalles en NordSubAdictos
    E-links:
    Bajar Película
    Torrent / Magnet:
    No Disponible
    Subtítulos:
    Bajar Subtítulos en Español
    Descargas Directas:

    MEGA
    https://mega.co.nz/#!E0MnWBxa!4-R_2ep4vhNFh3Bk44UyI7KUTzkuuXTG9p742LleyjQ
    Última edición por sirxevi; 21-05-2014 a las 06:00:47 Razón: Enlazar con filmografía.

  2. Los siguientes 5 usuarios agradecen el post de sirxevi:


  3. #2
    Subtitulador Avatar de sirxevi
    Fecha de ingreso
    03-04-2012
    Mensajes
    1,042
    Agradecimientos: 3024

    Predeterminado

    Imágenes:

    Spoiler:
    SPOILER:









    Información Técnica:

    Spoiler:
    SPOILER:
    General
    Complete name : Una Lección de Amor (1953) [En Lektion i Kärlek] DVDRip.avi
    Format : AVI
    Format/Info : Audio Video Interleave
    File size : 701 MiB
    Duration : 1h 31mn
    Overall bit rate mode : Variable
    Overall bit rate : 1 066 Kbps
    Writing application : VirtualDubMod 1.5.4.1 (build 2066/release)
    Writing library : VirtualDubMod build 2066/release

    Video
    ID : 0
    Format : MPEG-4 Visual
    Format profile : [email protected]
    Format settings, BVOP : 2
    Format settings, QPel : No
    Format settings, GMC : No warppoints
    Format settings, Matrix : Default (H.263)
    Codec ID : XVID
    Codec ID/Hint : XviD
    Duration : 1h 31mn
    Bit rate : 992 Kbps
    Width : 512 pixels
    Height : 376 pixels
    Display aspect ratio : 4:3
    Frame rate : 25.000 fps
    Color space : YUV
    Chroma subsampling : 4:2:0
    Bit depth : 8 bits
    Scan type : Progressive
    Compression mode : Lossy
    Bits/(Pixel*Frame) : 0.206
    Stream size : 653 MiB (93%)
    Writing library : XviD 1.1.0 Beta2 (UTC 2005-04-04)

    Audio
    ID : 1
    Format : MPEG Audio
    Format version : Version 1
    Format profile : Layer 3
    Codec ID : 55
    Codec ID/Hint : MP3
    Duration : 1h 31mn
    Bit rate mode : Variable
    Bit rate : 60.7 Kbps
    Nominal bit rate : 64.0 Kbps
    Channel count : 1 channel
    Sampling rate : 48.0 KHz
    Compression mode : Lossy
    Stream size : 39.9 MiB (6%)
    Alignment : Aligned on interleaves
    Interleave, duration : 24 ms (0.60 video frame)
    Interleave, preload duration : 123 ms
    Writing library : LAME3.90.
    Encoding settings : -m m -V 4 -q 2 -lowpass 11 --abr 64
    Última edición por sirxevi; 16-05-2014 a las 16:12:32 Razón: Agregar Información

Información de tema

Usuarios viendo este tema

Actualmente hay 1 usuarios viendo este tema. (0 miembros y 1 visitantes)

Temas similares

  1. Urok / The Lesson (2014) [Pedotriba - Sonata Pemiere]
    Por pepe2982 en el foro Drama (+)
    Respuestas: 24
    Último mensaje: 11-10-2016, 22:06:31
  2. Respuestas: 1
    Último mensaje: 16-05-2014, 15:51:02
  3. The Tango Lesson (1997)
    Por pepe2982 en el foro Drama (+)
    Respuestas: 1
    Último mensaje: 13-01-2013, 00:06:23
  4. Respuestas: 2
    Último mensaje: 19-02-2012, 19:43:58

Miembros que han leído este tema: 4

Permisos de publicación

  • No puedes crear nuevos temas
  • No puedes responder temas
  • No puedes subir archivos adjuntos
  • No puedes editar tus mensajes
  •