Resultados 1 al 2 de 2

Tema: Kvinnodröm / Dreams (1955)

  1. #1
    Subtitulador Avatar de sirxevi
    Fecha de ingreso
    03-04-2012
    Mensajes
    783
    Agradecimientos: 3043

    Suecia Kvinnodröm / Dreams (1955)

    Kvinnodröm / Dreams (1955)
    Sinopsis:
    Susanne es dueña de una agencia de modelos en Estocolmo. Doris, su modelo más popular, tiene una discusión con su novio, Palle, justo antes de que ella vaya con Susanne a Gotemburgo para ser fotografiada en una nueva colección. En Gotemburgo, Doris se encuentra con un cónsul de edad avanzada, que ve en ella un parecido sorprendente con su esposa, ahora en un hospital psiquiátrico. El cónsul satisface los deseos de Doris, comprándole ropa fina y joyas, y los dos pasan un día emocionante juntos, hasta que llega la hija del cónsul y, sin piedad, expone el egoísmo de su padre.
    Datos Película:
    Director: Ingmar Bergman.
    Reparto: Eva Dahlbeck, Harriet Andersson, Gunnar Björnstrand, Ulf Palme, Inga Landgré, Sven Lindberg, Naima Wifstrand.
    País: Suecia.
    Género: Drama, Fotografía.
    Duración: 87 Minutos.
    Más Detalles en Film Affinity
     
    Más Detalles en NordSubAdictos
    E-links:
    Bajar Película
    Torrent / Magnet:
    No Disponible
    Subtítulos:
    Español
    Descargas Directas:

    MEGA
    https://mega.co.nz/#!cskWkaxY!pdib3b2xOGUPGVDotNMStnhAIW2bhZ0dG1_yLEMI-g8
    Última edición por sirxevi; 21-05-2014 a las 06:15:30 Razón: Enlazar con Filmografía.

  2. Los siguientes 5 usuarios agradecen el post de sirxevi:


  3. #2
    Subtitulador Avatar de sirxevi
    Fecha de ingreso
    03-04-2012
    Mensajes
    783
    Agradecimientos: 3043

    Predeterminado

    Imágenes:

    Spoiler:
    SPOILER:









    Información Técnica:

    Spoiler:
    SPOILER:
    General
    Complete name : Kvinnodröm (1955) [Sueños].avi
    Format : AVI
    Format/Info : Audio Video Interleave
    File size : 700 MiB
    Duration : 1h 23mn
    Overall bit rate mode : Variable
    Overall bit rate : 1 171 Kbps
    Writing application : VirtualDubMod 1.5.4.1 (build 2178/release)
    Writing library : VirtualDubMod build 2178/release

    Video
    ID : 0
    Format : MPEG-4 Visual
    Format profile : Advanced [email protected]
    Format settings, BVOP : 1
    Format settings, QPel : No
    Format settings, GMC : No warppoints
    Format settings, Matrix : Custom
    Codec ID : XVID
    Codec ID/Hint : XviD
    Duration : 1h 23mn
    Bit rate : 1 021 Kbps
    Width : 544 pixels
    Height : 416 pixels
    Display aspect ratio : 4:3
    Frame rate : 25.000 fps
    Color space : YUV
    Chroma subsampling : 4:2:0
    Bit depth : 8 bits
    Scan type : Progressive
    Compression mode : Lossy
    Bits/(Pixel*Frame) : 0.180
    Stream size : 610 MiB (87%)
    Writing library : XviD 1.0.3 (UTC 2004-12-20)

    Audio
    ID : 1
    Format : MPEG Audio
    Format version : Version 1
    Format profile : Layer 3
    Mode : Joint stereo
    Codec ID : 55
    Codec ID/Hint : MP3
    Duration : 1h 23mn
    Bit rate mode : Variable
    Bit rate : 137 Kbps
    Nominal bit rate : 128 Kbps
    Channel count : 2 channels
    Sampling rate : 48.0 KHz
    Compression mode : Lossy
    Stream size : 82.1 MiB (12%)
    Alignment : Aligned on interleaves
    Interleave, duration : 24 ms (0.60 video frame)
    Interleave, preload duration : 489 ms
    Writing library : LAME3.96r
    Encoding settings : -m j -V 4 -q 2 -lowpass 17.5 --abr 128
    Language : Svenska
    Última edición por sirxevi; 16-05-2014 a las 16:13:27 Razón: Agregar Información

Información de tema

Usuarios viendo este tema

Actualmente hay 1 usuarios viendo este tema. (0 miembros y 1 visitantes)

Temas similares

  1. Electric Dreams (1984)
    Por Drako13 en el foro Comedia (+)
    Respuestas: 3
    Último mensaje: 19-05-2018, 00:11:21
  2. Respuestas: 2
    Último mensaje: 11-06-2016, 08:28:10
  3. I'll See You in My Dreams (2015)
    Por luisIreneo en el foro Drama (+)
    Respuestas: 9
    Último mensaje: 28-08-2015, 12:25:13
  4. Dreams (2013)
    Por the darkness en el foro Drama (+)
    Respuestas: 1
    Último mensaje: 18-08-2014, 04:52:25
  5. In Dreams (1999)
    Por McalvinoV en el foro Thriller / Crimen (+)
    Respuestas: 5
    Último mensaje: 30-08-2011, 17:32:50

Miembros que han leído este tema: 1

Permisos de publicación

  • No puedes crear nuevos temas
  • No puedes responder temas
  • No puedes subir archivos adjuntos
  • No puedes editar tus mensajes
  •