Resultados 1 al 2 de 2

Tema: Nära livet / Brink of Life (1958)

  1. #1
    Subtitulador Avatar de sirxevi
    Fecha de ingreso
    03-04-2012
    Mensajes
    783
    Agradecimientos: 3054

    Suecia Nära livet / Brink of Life (1958)

    Nära livet / Brink of Life (1958)
    Sinopsis:
    Cecilia (Ingrid Thulin) sufre una hemorragia interna cuando sólo lleva tres meses de embarazo. En la habitación del hospital conoce a Stina (Eva Dahlbeck), cuyo bebé nacerá con retraso, y a Hjördis (Bibi Andersson), que espera un hijo ilegítimo y ha intentado abortar.
    Datos Película:
    Director: Ingmar Bergman.
    Reparto: Eva Dahlbeck, Ingrid Thulin, Bibi Andersson, Barbro Hiort af Ornäs, Erland Josephson, Max von Sydow, Gunnar Sjöberg, Ann-Marie Gyllenspetz, Inga Landgré.
    País: Suecia.
    Género: Drama.
    Duración: 84 Minutos.
    Más Detalles en Film Affinity
     
    Más Detalles en NordSubAdictos
    E-links:
    Bajar Película
    Torrent / Magnet:
    No Disponible
    Subtítulos:
    Español
    Descargas Directas:

    MEGA
    https://mega.co.nz/#!Vx00yIaK!LdyBxyQxVM39H51L9QrDWzJThQAmOEAf0lzCifNM25g
    Última edición por sirxevi; 21-05-2014 a las 06:15:02 Razón: Enlazar con Filmografía.

  2. Los siguientes 3 usuarios agradecen el post de sirxevi:


  3. #2
    Subtitulador Avatar de sirxevi
    Fecha de ingreso
    03-04-2012
    Mensajes
    783
    Agradecimientos: 3054

    Predeterminado

    Imágenes:

    Spoiler:
    SPOILER:









    Información Técnica:

    Spoiler:
    SPOILER:
    General
    Complete name : Nära livet (1958).avi
    Format : AVI
    Format/Info : Audio Video Interleave
    File size : 1.45 GiB
    Duration : 1h 20mn
    Overall bit rate : 2 570 Kbps
    Writing application : VirtualDubMod 1.5.10.2 (build 2540/release)
    Writing library : VirtualDubMod build 2540/release

    Video
    ID : 0
    Format : MPEG-4 Visual
    Format profile : Advanced [email protected]
    Format settings, BVOP : 2
    Format settings, QPel : No
    Format settings, GMC : No warppoints
    Format settings, Matrix : Default (MPEG)
    Codec ID : XVID
    Codec ID/Hint : XviD
    Duration : 1h 20mn
    Bit rate : 2 307 Kbps
    Width : 672 pixels
    Height : 512 pixels
    Display aspect ratio : 4:3
    Frame rate : 25.000 fps
    Color space : YUV
    Chroma subsampling : 4:2:0
    Bit depth : 8 bits
    Scan type : Progressive
    Compression mode : Lossy
    Bits/(Pixel*Frame) : 0.268
    Stream size : 1.30 GiB (90%)
    Writing library : XviD 1.1.2 (UTC 2006-11-01)

    Audio
    ID : 1
    Format : AC-3
    Format/Info : Audio Coding 3
    Mode extension : CM (complete main)
    Format settings, Endianness : Big
    Codec ID : 2000
    Duration : 1h 20mn
    Bit rate mode : Constant
    Bit rate : 256 Kbps
    Channel count : 2 channels
    Channel positions : Front: L R
    Sampling rate : 48.0 KHz
    Bit depth : 16 bits
    Compression mode : Lossy
    Stream size : 148 MiB (10%)
    Alignment : Split accross interleaves
    Interleave, duration : 96 ms (2.40 video frames)
    Interleave, preload duration : 96 ms

Información de tema

Usuarios viendo este tema

Actualmente hay 1 usuarios viendo este tema. (0 miembros y 1 visitantes)

Temas similares

  1. The Brink's Job (1978)
    Por McalvinoV en el foro Comedia (+)
    Respuestas: 8
    Último mensaje: 11-09-2018, 12:07:40
  2. Respuestas: 13
    Último mensaje: 21-08-2018, 19:31:09
  3. Respuestas: 12
    Último mensaje: 18-12-2013, 13:19:37

Miembros que han leído este tema: 3

Permisos de publicación

  • No puedes crear nuevos temas
  • No puedes responder temas
  • No puedes subir archivos adjuntos
  • No puedes editar tus mensajes
  •