Resultados 1 al 2 de 2

Tema: Riten / The Rite (1969)

  1. #1
    Subtitulador Avatar de sirxevi
    Fecha de ingreso
    03-04-2012
    Mensajes
    783
    Agradecimientos: 3041

    Suecia Riten / The Rite (1969)

    Riten / The Rite (1969)
    Sinopsis:
    Una pequeña compañía de teatro ve cómo la censura sueca prohíbe su espectáculo. Los actores son convocados ante el juez de instrucción. Sorprendentemente, el juicio provoca comportamientos neuróticos tanto en los actores como en el propio magistrado.
    Datos Película:
    Director: Ingmar Bergman.
    Reparto: Ingrid Thulin, Gunnar Björnstrand, Anders Ek, Erik Hell, Ingmar Bergman.
    País: Suecia.
    Género: Drama, Drama judicial, Teatro, Telefilm.
    Duración: 72 Minutos.
    Más Detalles en Film Affinity
     
    Más Detalles en NordSubAdictos
    E-links:
    Bajar Película
    Torrent / Magnet:
    Bajar Película
    Subtítulos:
    Español
    Descargas Directas:

    MEGA
    https://mega.co.nz/#!8xM0HKKT!qGI2W78rrMRSg4jjZZBKhbRyjY6eWdSfu8Szu7ru1D4
    Última edición por sirxevi; 21-05-2014 a las 06:14:29 Razón: Enlazar con Filmografía.

  2. Los siguientes 9 usuarios agradecen el post de sirxevi:


  3. #2
    Subtitulador Avatar de sirxevi
    Fecha de ingreso
    03-04-2012
    Mensajes
    783
    Agradecimientos: 3041

    Predeterminado

    Imágenes:

    Spoiler:
    SPOILER:









    Información Técnica:

    Spoiler:
    SPOILER:
    General
    Complete name : El rito (1968).avi
    Format : AVI
    Format/Info : Audio Video Interleave
    File size : 698 MiB
    Duration : 1h 12mn
    Overall bit rate mode : Variable
    Overall bit rate : 1 350 Kbps
    Movie name : Riten
    Movie name/Country : Sweden
    Director : Ingmar Bergman
    Written by : Ingmar Bergman
    Encoded by : Ericb
    Writing application : Gordian Knot 0.26.1
    Original source medium : DVD
    Original source form/Name : movie
    Copyright : an [Ericb Rip]

    Video
    ID : 0
    Format : MPEG-4 Visual
    Format settings, BVOP : 1
    Format settings, QPel : No
    Format settings, GMC : No warppoints
    Format settings, Matrix : Default (H.263)
    Muxing mode : Packed bitstream
    Codec ID : DX50
    Codec ID/Hint : DivX 5
    Duration : 1h 12mn
    Bit rate : 1 245 Kbps
    Width : 640 pixels
    Height : 512 pixels
    Display aspect ratio : 5:4
    Frame rate : 25.000 fps
    Color space : YUV
    Chroma subsampling : 4:2:0
    Bit depth : 8 bits
    Scan type : Progressive
    Compression mode : Lossy
    Bits/(Pixel*Frame) : 0.152
    Stream size : 644 MiB (92%)
    Writing library : DivX 5.0.2 (UTC 2002-05-16)

    Audio
    ID : 1
    Format : MPEG Audio
    Format version : Version 1
    Format profile : Layer 3
    Mode : Joint stereo
    Mode extension : MS Stereo
    Codec ID : 55
    Codec ID/Hint : MP3
    Duration : 1h 12mn
    Bit rate mode : Variable
    Bit rate : 96.0 Kbps
    Channel count : 2 channels
    Sampling rate : 32.0 KHz
    Compression mode : Lossy
    Stream size : 48.9 MiB (7%)
    Alignment : Aligned on interleaves
    Interleave, duration : 36 ms (0.90 video frame)
    Interleave, preload duration : 194 ms
    Writing library : LAME3.92
    Encoding settings : -m j -V 0 -q 2 -lowpass 12.3 --abr 96
    Language : Swedish

Información de tema

Usuarios viendo este tema

Actualmente hay 1 usuarios viendo este tema. (0 miembros y 1 visitantes)

Temas similares

  1. Pikovaya dama. Chyornyy obryad / Queen of Spades: The Dark Rite (2015)
    Por luisIreneo en el foro Terror / Horror (+)
    Respuestas: 21
    Último mensaje: 05-07-2019, 10:48:29
  2. Age of Consent (1969)
    Por japezoa en el foro Drama (+)
    Respuestas: 3
    Último mensaje: 29-07-2015, 09:22:54
  3. Z (1969)
    Por tacaño en el foro Thriller / Crimen (+)
    Respuestas: 2
    Último mensaje: 24-10-2013, 21:35:56
  4. The Rite (2011)
    Por McalvinoV en el foro Terror / Horror (+)
    Respuestas: 20
    Último mensaje: 21-09-2012, 09:43:02
  5. The Rite (2011)
    Por Neokyo en el foro Terror / Horror (+)
    Respuestas: 3
    Último mensaje: 10-07-2011, 16:57:30

Miembros que han leído este tema: 6

Permisos de publicación

  • No puedes crear nuevos temas
  • No puedes responder temas
  • No puedes subir archivos adjuntos
  • No puedes editar tus mensajes
  •