Resultados 1 al 6 de 6

Tema: Trollflöjten / The Magic Flute (1975)

  1. #1
    Subtitulador Avatar de sirxevi
    Fecha de ingreso
    03-04-2012
    Mensajes
    1,042
    Agradecimientos: 3015

    Suecia Trollflöjten / The Magic Flute (1975)

    Trollflöjten / The Magic Flute (1975)
    Sinopsis:
    Adaptación televisiva de la famosa ópera de W. A. Mozart. El príncipe Tamino se ha enamorado de la princesa Pamina, pero ésta ha sido secuestrada por Sarastro. La madre de la princesa, la Reina de la Noche, lo incita a rescatarla, prometiéndole que si lo consigue podrá casarse con ella.
    Datos Película:
    Director: Ingmar Bergman.
    Reparto: Josef Kostlinger, Irma Urrila, Hakan Hagegard, Elisabeth Erikson, Jane Darling.
    País: Suecia.
    Género: Musical, Drama, Telefilm.
    Duración: 135 Minutos.
    Más Detalles en Film Affinity
     
    Más Detalles en NordSubAdictos
    E-links:
    Bajar Película
    Torrent / Magnet:
    Bajar Película
    Subtítulos:
    Bajar Subtítulos en Español
    Descargas Directas:

    MEGA
    https://mega.co.nz/#!lx9DWABa!Lqkg91ou5sZHj8E5j6r2Oy0E-su2vQ3Xf_OzmQeUM-A
    Última edición por sirxevi; 21-05-2014 a las 06:06:14 Razón: Enlazar con Filmografía.

  2. Los siguientes 9 usuarios agradecen el post de sirxevi:


  3. #2
    Subtitulador Avatar de sirxevi
    Fecha de ingreso
    03-04-2012
    Mensajes
    1,042
    Agradecimientos: 3015

    Predeterminado

    Imágenes:

    Spoiler:
    SPOILER:









    Información Técnica:

    Spoiler:
    SPOILER:
    General
    Complete name : Trollflojten (1975).avi
    Format : AVI
    Format/Info : Audio Video Interleave
    File size : 1.37 GiB
    Duration : 2h 9mn
    Overall bit rate mode : Variable
    Overall bit rate : 1 512 Kbps
    Writing application : VirtualDubMod 1.5.10.1 (build 2366/release)
    Writing library : VirtualDubMod build 2366/release

    Video
    ID : 0
    Format : MPEG-4 Visual
    Format profile : Advanced [email protected]
    Format settings, BVOP : 2
    Format settings, QPel : No
    Format settings, GMC : No warppoints
    Format settings, Matrix : Default (MPEG)
    Codec ID : XVID
    Codec ID/Hint : XviD
    Duration : 2h 9mn
    Bit rate : 1 379 Kbps
    Width : 624 pixels
    Height : 464 pixels
    Display aspect ratio : 4:3
    Frame rate : 25.000 fps
    Color space : YUV
    Chroma subsampling : 4:2:0
    Bit depth : 8 bits
    Scan type : Progressive
    Compression mode : Lossy
    Bits/(Pixel*Frame) : 0.190
    Stream size : 1.25 GiB (91%)
    Writing library : XviD 1.1.0 (UTC 2005-11-22)

    Audio
    ID : 1
    Format : MPEG Audio
    Format version : Version 1
    Format profile : Layer 3
    Mode : Joint stereo
    Mode extension : MS Stereo
    Codec ID : 55
    Codec ID/Hint : MP3
    Duration : 2h 9mn
    Bit rate mode : Variable
    Bit rate : 121 Kbps
    Minimum bit rate : 32.0 Kbps
    Channel count : 2 channels
    Sampling rate : 48.0 KHz
    Compression mode : Lossy
    Stream size : 112 MiB (8%)
    Alignment : Aligned on interleaves
    Interleave, duration : 24 ms (0.60 video frame)
    Interleave, preload duration : 369 ms
    Writing library : LAME3.97b
    Encoding settings : -m j -V 4 -q 3 -lowpass 17.5 --vbr-new -b 32

  4. #3
    Subtitulador Avatar de HJCOS
    Fecha de ingreso
    10-02-2011
    Ubicación
    Buenos Aires
    Edad
    75
    Mensajes
    1,699
    Agradecimientos: 878

    Predeterminado

    Gracias sirxevi.
    La vi en el cine cuando se estrenó!
    Ahora vi los primeros minutos.
    Escuche la "Obertura" y cuando aparecieron las primeras imágenes se me cayó un "lagrimón". Imperdible. Gracias

  5. #4
    Sin Adicción Avatar de andressailer
    Fecha de ingreso
    20-08-2012
    Mensajes
    14
    Agradecimientos: 9

    Predeterminado

    Mi señora es "fanatica" de las operas. Vimos el principio de esta (obertura), y nos pareció excelente, asique tenemos una Flauta Mágica más en nuestra colección. Gracias por este aporte (habrá alguna más proximamente?)

  6. #5
    Subtitulador Avatar de HJCOS
    Fecha de ingreso
    10-02-2011
    Ubicación
    Buenos Aires
    Edad
    75
    Mensajes
    1,699
    Agradecimientos: 878

    Predeterminado

    Cita Iniciado por andressailer Ver mensaje
    Mi señora es "fanatica" de las operas. Vimos el principio de esta (obertura), y nos pareció excelente, asique tenemos una Flauta Mágica más en nuestra colección. Gracias por este aporte (habrá alguna más proximamente?)
    Estoy buscando los subtitulos para la versión de Kenneth Branagh, espero encontrarlos...

  7. #6
    Subtitulador Avatar de sirxevi
    Fecha de ingreso
    03-04-2012
    Mensajes
    1,042
    Agradecimientos: 3015

    Predeterminado

    Cita Iniciado por andressailer Ver mensaje
    Mi señora es "fanatica" de las operas. Vimos el principio de esta (obertura), y nos pareció excelente, asique tenemos una Flauta Mágica más en nuestra colección. Gracias por este aporte (habrá alguna más proximamente?)
    Me alegro que os gustara pero lamento decirte que no soy aficionado a la opera y, por tanto, es difícil que haga algún aporte más de la misma temática. Este se debe a que estoy completando la filmografía del director, del cual sí que soy un devoto.

    Gracias por vuestros comentarios, hacen que merezca el tiempo que le dedicamos.

Información de tema

Usuarios viendo este tema

Actualmente hay 1 usuarios viendo este tema. (0 miembros y 1 visitantes)

Temas similares

  1. The Magic Sword (1962)
    Por el profundo en el foro Aventuras / Familia (+)
    Respuestas: 1
    Último mensaje: 13-04-2014, 19:44:21
  2. Magic, Magic (2013) [PFa] 720p
    Por the darkness en el foro Terror / Horror HD (+)
    Respuestas: 3
    Último mensaje: 05-04-2014, 13:30:06
  3. Magic, Magic (2013) [ViCKY - FooKaS]
    Por the darkness en el foro Terror / Horror (+)
    Respuestas: 31
    Último mensaje: 03-09-2013, 04:58:29
  4. The Magic Flute (2006) [DMT]
    Por ziparunio en el foro Musicales (+)
    Respuestas: 7
    Último mensaje: 21-12-2012, 04:16:03
  5. Magic Man (2010) [DvF]
    Por Neokyo en el foro Thriller / Crimen (+)
    Respuestas: 3
    Último mensaje: 17-01-2011, 10:05:04

Miembros que han leído este tema: 10

Permisos de publicación

  • No puedes crear nuevos temas
  • No puedes responder temas
  • No puedes subir archivos adjuntos
  • No puedes editar tus mensajes
  •