Resultados 1 al 2 de 2

Tema: Gycklarnas afton / Sawdust and Tinsel (1953)

  1. #1
    Subtitulador Avatar de sirxevi
    Fecha de ingreso
    03-04-2012
    Mensajes
    783
    Agradecimientos: 3041

    Suecia Gycklarnas afton / Sawdust and Tinsel (1953)

    Gycklarnas afton / Sawdust and Tinsel (1953)
    Sinopsis:
    Albert, el propietario de un circo, abandona a su familia para entregarse a Anne, una orgullosa y apasionada amazona que mantiene relaciones esporádicas con un joven y neurótico actor. Pero el circo es un desastre y Albert y su compañera se ven obligados a mendigar para sobrevivir.
    Datos Película:
    Director: Ingmar Bergman.
    Reparto: Åke Grönberg, Harriet Andersson, Hasse Ekman, Gudrun Brost, Anders Ek, Annika Tretow, Erik Strandmark, Gunnar Björnstrand, Curt Löwgren.
    País: Suecia.
    Género: Drama, Circo.
    Duración: 93 Minutos.
    Más Detalles en Film Affinity
     
    Más Detalles en NordSubAdictos
    E-links:
    No Disponible
    Torrent / Magnet:
    Bajar Película
    Subtítulos:
    Español
    Descargas Directas:

    MEGA
    https://mega.co.nz/#!RwFg1Doa!SR9Ar4axOoJYYmNevw8kPSOhvPkhwecVwr50uibiCc4
    Última edición por sirxevi; 21-05-2014 a las 07:51:43 Razón: Agregar afiche

  2. Los siguientes 8 usuarios agradecen el post de sirxevi:


  3. #2
    Subtitulador Avatar de sirxevi
    Fecha de ingreso
    03-04-2012
    Mensajes
    783
    Agradecimientos: 3041

    Predeterminado

    Imágenes:

    Spoiler:
    SPOILER:









    Información Técnica:

    Spoiler:
    SPOILER:
    General
    Complete name : Gycklarnas afton (1953).avi
    Format : AVI
    Format/Info : Audio Video Interleave
    File size : 541 MiB
    Duration : 1h 28mn
    Overall bit rate mode : Variable
    Overall bit rate : 855 Kbps
    Writing application : VirtualDubMod 1.5.10.1 (build 2439/release)
    Writing library : VirtualDubMod build 2439/release

    Video
    ID : 0
    Format : MPEG-4 Visual
    Format profile : [email protected]
    Format settings, BVOP : 1
    Format settings, QPel : No
    Format settings, GMC : No warppoints
    Format settings, Matrix : Default (H.263)
    Codec ID : XVID
    Codec ID/Hint : XviD
    Duration : 1h 28mn
    Bit rate : 744 Kbps
    Width : 512 pixels
    Height : 384 pixels
    Display aspect ratio : 4:3
    Frame rate : 25.000 fps
    Color space : YUV
    Chroma subsampling : 4:2:0
    Bit depth : 8 bits
    Scan type : Progressive
    Compression mode : Lossy
    Bits/(Pixel*Frame) : 0.151
    Stream size : 471 MiB (87%)
    Writing library : XviD 0.0.09 (UTC 2003-03-25)

    Audio
    ID : 1
    Format : MPEG Audio
    Format version : Version 1
    Format profile : Layer 3
    Mode : Joint stereo
    Codec ID : 55
    Codec ID/Hint : MP3
    Duration : 1h 28mn
    Bit rate mode : Variable
    Bit rate : 96.0 Kbps
    Channel count : 2 channels
    Sampling rate : 32.0 KHz
    Compression mode : Lossy
    Stream size : 63.6 MiB (12%)
    Alignment : Aligned on interleaves
    Interleave, duration : 36 ms (0.90 video frame)
    Interleave, preload duration : 521 ms
    Writing library : LAME3.90.
    Encoding settings : -m j -V 4 -q 2 -lowpass 15.4 --abr 96

Información de tema

Usuarios viendo este tema

Actualmente hay 1 usuarios viendo este tema. (0 miembros y 1 visitantes)

Temas similares

  1. La Caza (1965)
    Por tacaño en el foro Drama (+)
    Respuestas: 17
    Último mensaje: 14-04-2020, 12:34:30
  2. La frusta e il corpo / The Whip and the Flesh (1963)
    Por THE. en el foro Terror / Horror (+)
    Respuestas: 1
    Último mensaje: 12-09-2013, 14:49:51
  3. Danza macabra / Castle of Blood (1964)
    Por THE. en el foro Terror / Horror (+)
    Respuestas: 5
    Último mensaje: 19-07-2013, 01:38:59
  4. Scaramouche (1952)
    Por el profundo en el foro Cine de Época (+)
    Respuestas: 1
    Último mensaje: 21-01-2013, 16:20:06
  5. Le Notti Bianche (1957)
    Por McalvinoV en el foro Romance (+)
    Respuestas: 1
    Último mensaje: 05-03-2012, 19:08:54

Miembros que han leído este tema: 6

Permisos de publicación

  • No puedes crear nuevos temas
  • No puedes responder temas
  • No puedes subir archivos adjuntos
  • No puedes editar tus mensajes
  •