Resultados 1 al 2 de 2

Tema: Sommarnattens leende / Smiles of a Summer Night (1955)

  1. #1
    Subtitulador Avatar de sirxevi
    Fecha de ingreso
    03-04-2012
    Mensajes
    1,042
    Agradecimientos: 3024

    Suecia Sommarnattens leende / Smiles of a Summer Night (1955)

    Sommarnattens leende / Smiles of a Summer Night (1955)
    Sinopsis:
    El abogado Fredrik Egerman (Gunnar Björnstrand) es un hombre maduro que vive una relación platónica con Anne (Ulla Jacobsson), su joven y virginal esposa. Henrik, hijo de un matrimonio anterior, persigue a Petra (Harriet Andersson), la doncella de la familia. Una actriz llamada Desiree (Eva Dahlbeck), antigua amante de Fredrik, está en la ciudad y él la visita, pero ahora ella tiene un nuevo amante, el Conde Malcom, casado con Charlotte. Todos estan invitados a una fiesta durante un fin de semana en la propiedad de la madre de Desiree. Charlotte intenta seducir a Fredrik para vengarse de Desiree. Mientras tanto, Anne, la casta esposa de Fredrik, se da cuenta de lo mucho que le atrae su hijastro.
    Datos Película:
    Director: Ingmar Bergman.
    Reparto: Eva Dahlbeck, Ulla Jacobsson, Harriet Andersson, Margit Carlqvist, Gunnar Björnstrand, Jarl Kulle, Bibi Andersson, Ake Fridell, Naima Wifstrand, Björn Bjelvenstam.
    País: Suecia.
    Género: Comedia, Romance, Años 1900 (circa), Vida rural, Drama de época, Celos, Historias cruzadas, Comedia romántica.
    Duración: 109 Minutos.
    Más Detalles en Film Affinity
     
    Más Detalles en NordSubAdictos
    E-links:
    Bajar Película
    Torrent / Magnet:
    Bajar Película
    Subtítulos:
    Bajar Subtítulos en Español
    Descargas Directas:

    MEGA
    https://mega.co.nz/#!w0MklSTJ!bEgVhELNrfjybSz__qLThtZ-qCCxJwjWlkkexW67fC4
    Última edición por sirxevi; 21-05-2014 a las 08:37:32 Razón: Agregar afiche

  2. Los siguientes 12 usuarios agradecen el post de sirxevi:


  3. #2
    Subtitulador Avatar de sirxevi
    Fecha de ingreso
    03-04-2012
    Mensajes
    1,042
    Agradecimientos: 3024

    Predeterminado

    Imágenes:

    Spoiler:
    SPOILER:









    Información Técnica:

    Spoiler:
    SPOILER:
    General
    Complete name : Sonrisas de una Noche de Verano (1955).avi
    Format : AVI
    Format/Info : Audio Video Interleave
    File size : 701 MiB
    Duration : 1h 44mn
    Overall bit rate mode : Variable
    Overall bit rate : 938 Kbps
    Writing application : Nandub v1.0rc2
    Writing library : Nandub build 1853/release

    Video
    ID : 0
    Format : MPEG-4 Visual
    Codec ID : DIV3
    Codec ID/Hint : DivX 3 Low
    Duration : 1h 44mn
    Bit rate : 845 Kbps
    Width : 512 pixels
    Height : 384 pixels
    Display aspect ratio : 4:3
    Frame rate : 25.000 fps
    Color space : YUV
    Chroma subsampling : 4:2:0
    Bit depth : 8 bits
    Compression mode : Lossy
    Bits/(Pixel*Frame) : 0.172
    Stream size : 631 MiB (90%)

    Audio
    ID : 1
    Format : MPEG Audio
    Format version : Version 1
    Format profile : Layer 3
    Codec ID : 55
    Codec ID/Hint : MP3
    Duration : 1h 44mn
    Bit rate mode : Variable
    Bit rate : 80.8 Kbps
    Channel count : 1 channel
    Sampling rate : 48.0 KHz
    Compression mode : Lossy
    Stream size : 60.4 MiB (9%)
    Alignment : Aligned on interleaves
    Interleave, duration : 24 ms (0.60 video frame)
    Interleave, preload duration : 408 ms
    Writing library : LAME3.88 (beta)

Información de tema

Usuarios viendo este tema

Actualmente hay 1 usuarios viendo este tema. (0 miembros y 1 visitantes)

Temas similares

  1. Respuestas: 6
    Último mensaje: 29-04-2020, 14:52:08
  2. Silent Night-Zombie Night (2009)
    Por Simonrag en el foro Terror / Horror
    Respuestas: 4
    Último mensaje: 23-04-2012, 16:38:52
  3. Silent Night, Deadly Night (1984) [STR-NOiR]
    Por McalvinoV en el foro Terror / Horror (+)
    Respuestas: 13
    Último mensaje: 19-11-2011, 09:53:20
  4. Summertime / Summer Madness (1955) [Wolfman-Baticus]
    Por Neokyo en el foro Romance (+)
    Respuestas: 0
    Último mensaje: 30-06-2011, 14:35:30
  5. Day & Night / Day and Night (2010) [TASTE]
    Por Marime en el foro Animación (+)
    Respuestas: 8
    Último mensaje: 01-02-2011, 00:28:53

Miembros que han leído este tema: 1

Permisos de publicación

  • No puedes crear nuevos temas
  • No puedes responder temas
  • No puedes subir archivos adjuntos
  • No puedes editar tus mensajes
  •