Resultados 1 al 5 de 5

Tema: Larmar och gör sig till / In the Presence of a Clown (1997)

  1. #1
    Subtitulador Avatar de sirxevi
    Fecha de ingreso
    03-04-2012
    Mensajes
    1,042
    Agradecimientos: 3016

    Suecia Larmar och gör sig till / In the Presence of a Clown (1997)

    Larmar och gör sig till / In the Presence of a Clown (1997)
    Sinopsis:
    En 1925, el inventor Carl Åkerblom ingresa en un centro psiquiátrico de Upsala a causa de una violenta crisis nerviosa. Allí, con la colaboración de otros pacientes, se propone rodar la primera película sonora de la historia del cine, que trataría sobre los últimos días de la vida de Schubert. En el hospital recibe la inquietante visita de un ambiguo y extraño payaso. Aunque fue creada para la televisión, se exhibió en la sección "Un certain regard", del Festival de Cine de Cannes.
    Datos Película:
    Director: Ingmar Bergman.
    Reparto: Börje Ahlstedt, Marie Richardson, Erland Josephson, Peter Stormare, Agneta Ekmanner, Karin Bergman.
    País: Suecia.
    Género: Drama, Años 20.
    Duración: 119 Minutos.
    Más Detalles en Film Affinity
     
    Más Detalles en NordSubAdictos
    E-links:
    Bajar Película
    Torrent / Magnet:
    Bajar Película
    Subtítulos:
    Bajar Subtítulos en Español
    Descargas Directas:

    MEGA
    https://mega.co.nz/#!sl1URB6J!8lJ8m-byEK-QbZUhgyS6Y0qeOx5t217c-roASEvMU-s
    Última edición por sirxevi; 26-05-2014 a las 17:51:14 Razón: Agregar link DD.

  2. Los siguientes 12 usuarios agradecen el post de sirxevi:


  3. #2
    Subtitulador Avatar de sirxevi
    Fecha de ingreso
    03-04-2012
    Mensajes
    1,042
    Agradecimientos: 3016

    Predeterminado

    Imágenes:

    Spoiler:
    SPOILER:





    Información Técnica:

    Spoiler:
    SPOILER:
    General
    Complete name : En Presencia de un Payaso (1997).[DVDRip].avi
    Format : AVI
    Format/Info : Audio Video Interleave
    File size : 1.61 GiB
    Duration : 1h 59mn
    Overall bit rate : 1 935 Kbps
    Writing application : VirtualDubMod 1.5.10.2 (build 2540/release)
    Writing library : VirtualDubMod build 2540/release

    Video
    ID : 0
    Format : MPEG-4 Visual
    Format profile : Advanced [email protected]
    Format settings, BVOP : 2
    Format settings, QPel : No
    Format settings, GMC : No warppoints
    Format settings, Matrix : Default (MPEG)
    Codec ID : XVID
    Codec ID/Hint : XviD
    Duration : 1h 59mn
    Bit rate : 1 606 Kbps
    Width : 640 pixels
    Height : 480 pixels
    Display aspect ratio : 4:3
    Frame rate : 25.000 fps
    Color space : YUV
    Chroma subsampling : 4:2:0
    Bit depth : 8 bits
    Scan type : Progressive
    Compression mode : Lossy
    Bits/(Pixel*Frame) : 0.209
    Stream size : 1.34 GiB (83%)
    Writing library : XviD 64

    Audio
    ID : 1
    Format : AC-3
    Format/Info : Audio Coding 3
    Mode extension : CM (complete main)
    Format settings, Endianness : Big
    Codec ID : 2000
    Duration : 1h 59mn
    Bit rate mode : Constant
    Bit rate : 320 Kbps
    Channel count : 2 channels
    Channel positions : Front: L R
    Sampling rate : 48.0 KHz
    Bit depth : 16 bits
    Compression mode : Lossy
    Stream size : 273 MiB (17%)
    Alignment : Split accross interleaves
    Interleave, duration : 40 ms (1.00 video frame)
    Interleave, preload duration : 500 ms

  4. #3
    Subtitulador Avatar de mcozeti
    Fecha de ingreso
    16-06-2011
    Ubicación
    Hurlingham, Buenos Aires
    Mensajes
    6,571
    Agradecimientos: 17246

    Predeterminado

    ¡Gracias, sirxevi

  5. #4
    Subtitulador Avatar de sirxevi
    Fecha de ingreso
    03-04-2012
    Mensajes
    1,042
    Agradecimientos: 3016

    Predeterminado

    Agregado link descarga directa.

  6. #5
    Medio Adicto Avatar de sebalocura
    Fecha de ingreso
    06-04-2014
    Mensajes
    46
    Agradecimientos: 11

    Predeterminado

    Gracias bajando!!

Información de tema

Usuarios viendo este tema

Actualmente hay 1 usuarios viendo este tema. (0 miembros y 1 visitantes)

Temas similares

  1. Clown (2014) [RARBG - EVO]
    Por the darkness en el foro Terror / Horror (+)
    Respuestas: 23
    Último mensaje: 06-08-2018, 17:09:56
  2. Shakes the Clown (1991) [iAMi]
    Por McalvinoV en el foro Comedia
    Respuestas: 0
    Último mensaje: 05-01-2012, 17:46:46
  3. Secrets of the Clown (2007) [DOCUMENT]
    Por McalvinoV en el foro Terror / Horror
    Respuestas: 0
    Último mensaje: 10-08-2011, 17:27:30
  4. The Presence (2010) [iLG]
    Por McalvinoV en el foro Terror / Horror (+)
    Respuestas: 11
    Último mensaje: 01-05-2011, 13:07:58
  5. Punching the Clown (2009) [VoMiT]
    Por McalvinoV en el foro Comedia
    Respuestas: 7
    Último mensaje: 23-01-2011, 13:13:51

Miembros que han leído este tema: 8

Permisos de publicación

  • No puedes crear nuevos temas
  • No puedes responder temas
  • No puedes subir archivos adjuntos
  • No puedes editar tus mensajes
  •