Resultados 1 al 4 de 4

Tema: Kvinnors väntan / Secrets of Women (1952)

  1. #1
    Subtitulador Avatar de sirxevi
    Fecha de ingreso
    03-04-2012
    Mensajes
    783
    Agradecimientos: 3043

    Suecia Kvinnors väntan / Secrets of Women (1952)

    Kvinnors väntan / Secrets of Women (1952)
    Sinopsis:
    En una casa de verano, cuatro mujeres esperan la llegada de sus maridos desde Estocolmo. Alrededor de una taza de café, evocan sus experiencias conyugales. La más joven de ellas, que espera a su novio, las escucha hablar de sus fracasos, de su amargura y de sus desilusiones.
    Datos Película:
    Director: Ingmar Bergman.
    Reparto: Anita Björk, Eva Dahlbeck, Maj-Britt Nilsson, Birger Malmsten, Gunnar Björnstrand, Karl-Arne Holmsten, Jarl Kulle, Aino Taube, Håkan Westergren, Gerd Andersson, Björn Bjelfvenstam.
    País: Suecia.
    Género: Drama, Comedia.
    Duración: 107 Minutos.
    Más Detalles en Film Affinity
     
    Más Detalles en NordSubAdictos
    E-links:
    Bajar Película
    Torrent / Magnet:
    No Disponible
    Subtítulos:
    Español
    Descargas Directas:

    MEGA
    https://mega.co.nz/#!RpMjQBbT!mZh0oewsQNzriIiib7pdl8W0Ii8azQ3OkuuRCjEvu8c
    Última edición por sirxevi; 26-05-2014 a las 18:00:55 Razón: Agregar afiche

  2. Los siguientes 6 usuarios agradecen el post de sirxevi:


  3. #2
    Subtitulador Avatar de sirxevi
    Fecha de ingreso
    03-04-2012
    Mensajes
    783
    Agradecimientos: 3043

    Predeterminado

    Imágenes:

    Spoiler:
    SPOILER:









    Información Técnica:

    Spoiler:
    SPOILER:
    General
    Complete name : Kvinnors väntan (1952).avi
    Format : AVI
    Format/Info : Audio Video Interleave
    File size : 703 MiB
    Duration : 1h 43mn
    Overall bit rate mode : Variable
    Overall bit rate : 949 Kbps
    Writing application : Nandub v1.0rc2
    Writing library : Nandub build 1852/release

    Video
    ID : 0
    Format : MPEG-4 Visual
    Format profile : Advanced [email protected]
    Format settings, BVOP : 2
    Format settings, QPel : Yes
    Format settings, GMC : No warppoints
    Format settings, Matrix : Default (H.263)
    Muxing mode : Packed bitstream
    Codec ID : XVID
    Codec ID/Hint : XviD
    Duration : 1h 43mn
    Bit rate : 813 Kbps
    Width : 512 pixels
    Height : 368 pixels
    Display aspect ratio : 1.391
    Frame rate : 25.000 fps
    Color space : YUV
    Chroma subsampling : 4:2:0
    Bit depth : 8 bits
    Scan type : Progressive
    Compression mode : Lossy
    Bits/(Pixel*Frame) : 0.173
    Stream size : 602 MiB (86%)
    Writing library : XviD 1.0.3 (UTC 2004-12-20)

    Audio
    ID : 1
    Format : MPEG Audio
    Format version : Version 1
    Format profile : Layer 3
    Codec ID : 55
    Codec ID/Hint : MP3
    Duration : 1h 43mn
    Bit rate mode : Variable
    Bit rate : 124 Kbps
    Nominal bit rate : 135 Kbps
    Channel count : 2 channels
    Sampling rate : 44.1 KHz
    Compression mode : Lossy
    Stream size : 92.0 MiB (13%)
    Alignment : Aligned on interleaves
    Interleave, duration : 26 ms (0.65 video frame)
    Interleave, preload duration : 503 ms
    Writing library : LAME3.92
    Encoding settings : -m s -V 0 -q 0 -lowpass 14.5 --abr 135
    Última edición por sirxevi; 26-05-2014 a las 17:32:13

  4. #3
    Subtitulador Avatar de federicio
    Fecha de ingreso
    13-04-2012
    Ubicación
    Provincia de Bs. As.
    Mensajes
    13,465
    Agradecimientos: 17846

    Predeterminado

    Bajando...

  5. #4
    Adicto Sin Retorno Avatar de mediodia
    Fecha de ingreso
    28-10-2012
    Mensajes
    2,541
    Agradecimientos: 2601

    Predeterminado

    Gracias, sirxevi!

Información de tema

Usuarios viendo este tema

Actualmente hay 1 usuarios viendo este tema. (0 miembros y 1 visitantes)

Temas similares

  1. El (1952)
    Por NazoMunera en el foro Thriller / Crimen (+)
    Respuestas: 6
    Último mensaje: 19-04-2016, 21:43:19
  2. 3 Women / Three Women (1977)
    Por McalvinoV en el foro Drama (+)
    Respuestas: 4
    Último mensaje: 10-06-2015, 02:26:35
  3. Secrets & Lies / Secrets and Lies (1996)
    Por Simonrag en el foro Drama (+)
    Respuestas: 5
    Último mensaje: 10-01-2015, 21:41:10
  4. What Women Want (2000)
    Por McalvinoV en el foro Comedia (+)
    Respuestas: 6
    Último mensaje: 05-12-2011, 18:49:23
  5. I väntan på examinering / Awaiting Examination (2010)
    Por Neokyo en el foro Recuperación de Películas
    Respuestas: 2
    Último mensaje: 12-01-2011, 16:01:12

Miembros que han leído este tema: 4

Permisos de publicación

  • No puedes crear nuevos temas
  • No puedes responder temas
  • No puedes subir archivos adjuntos
  • No puedes editar tus mensajes
  •