Resultados 1 al 4 de 4

Tema: För att inte tala om alla dessa kvinnor / All These Women (1964) [iMBT]

  1. #1
    Subtitulador Avatar de sirxevi
    Fecha de ingreso
    03-04-2012
    Mensajes
    1,042
    Agradecimientos: 3024

    Suecia För att inte tala om alla dessa kvinnor / All These Women (1964) [iMBT]

    För att inte tala om alla dessa kvinnor / All These Women (1964)
    Sinopsis:
    Félix, un músico con gran talento, vive retirado en una suntuosa casa en compañía de siete mujeres. Llega entonces Cornelius, un periodista que desea escribir la biografía del maestro.
    Datos Película:
    Director: Ingmar Bergman.
    Reparto: Bibi Andersson, Harriet Andersson, Eva Dahlbeck, Karin Kavli, Gertrud Fridh, Mona Malm, Barbro Hiort af Ornäs, Allan Edwall, Georg Funkquist, Carl Billquist, Jarl Kulle.
    País: Suecia.
    Género: Comedia.
    Duración: 80 Minutos.
    Más Detalles en Film Affinity
     
    Más Detalles en NordSubAdictos
    E-links:
    No Disponible
    Torrent / Magnet:
    Bajar Película
    Subtítulos:
    Bajar Subtítulos en Español
    Descargas Directas:

    MEGA
    https://mega.co.nz/#!Z59GzQ6B!VrQdlgxEvo6H4I4efFopHay13mX15MAZWshY0Z4ohbw
    Última edición por sirxevi; 26-05-2014 a las 18:00:39 Razón: Agregar afiche

  2. Los siguientes 8 usuarios agradecen el post de sirxevi:


  3. #2
    Subtitulador Avatar de sirxevi
    Fecha de ingreso
    03-04-2012
    Mensajes
    1,042
    Agradecimientos: 3024

    Predeterminado

    Imágenes:

    Spoiler:
    SPOILER:









    Información Técnica:

    Spoiler:
    SPOILER:
    General
    Complete name : Esas Mujeres (1964).[DVDRip.XviD-iMBT].avi
    Format : AVI
    Format/Info : Audio Video Interleave
    File size : 700 MiB
    Duration : 1h 16mn
    Overall bit rate mode : Variable
    Overall bit rate : 1 277 Kbps
    Writing application : VirtualDubMod 1.5.10.1 (build 2439/release)
    Writing library : VirtualDubMod build 2439/release

    Video
    ID : 0
    Format : MPEG-4 Visual
    Format profile : [email protected]
    Format settings, BVOP : No
    Format settings, QPel : No
    Format settings, GMC : No warppoints
    Format settings, Matrix : Default (H.263)
    Codec ID : XVID
    Codec ID/Hint : XviD
    Duration : 1h 16mn
    Bit rate : 1 178 Kbps
    Width : 544 pixels
    Height : 400 pixels
    Display aspect ratio : 4:3
    Frame rate : 25.000 fps
    Color space : YUV
    Chroma subsampling : 4:2:0
    Bit depth : 8 bits
    Scan type : Progressive
    Compression mode : Lossy
    Bits/(Pixel*Frame) : 0.217
    Stream size : 646 MiB (92%)
    Writing library : XviD 1.0.2 (UTC 2004-08-29)

    Audio
    ID : 1
    Format : MPEG Audio
    Format version : Version 1
    Format profile : Layer 3
    Codec ID : 55
    Codec ID/Hint : MP3
    Duration : 1h 16mn
    Bit rate mode : Variable
    Bit rate : 86.3 Kbps
    Channel count : 1 channel
    Sampling rate : 48.0 KHz
    Compression mode : Lossy
    Stream size : 47.3 MiB (7%)
    Alignment : Aligned on interleaves
    Interleave, duration : 24 ms (0.60 video frame)
    Interleave, preload duration : 222 ms
    Writing library : LAME3.93
    Encoding settings : -m m -V 3 -q 2 -lowpass 18.5 --vbr-old

  4. #3
    Subtitulador Avatar de federicio
    Fecha de ingreso
    13-04-2012
    Ubicación
    Provincia de Bs. As.
    Mensajes
    16,681
    Agradecimientos: 16982

    Predeterminado

    Bajando..!

  5. #4
    Adicto Sin Retorno Avatar de mediodia
    Fecha de ingreso
    28-10-2012
    Mensajes
    4,030
    Agradecimientos: 2471

    Predeterminado

    Gracias, sirxevi. Bajaré cuando sea posible!
    Última edición por mediodia; 28-05-2014 a las 17:31:11

Información de tema

Usuarios viendo este tema

Actualmente hay 1 usuarios viendo este tema. (0 miembros y 1 visitantes)

Temas similares

  1. Hamilton: Men inte om det gäller din dotter (2012) [JYK]
    Por pepe2982 en el foro Acción (+)
    Respuestas: 12
    Último mensaje: 01-07-2017, 18:50:35
  2. Maria Wern - Inte ens det förflutna (2012)
    Por VIEJOLOKO en el foro Thriller / Crimen (+)
    Respuestas: 21
    Último mensaje: 20-03-2016, 12:53:57
  3. 3 Women / Three Women (1977) [YIFY - KML]
    Por McalvinoV en el foro Drama (+)
    Respuestas: 4
    Último mensaje: 10-06-2015, 02:26:35
  4. Män som hatar kvinnor / The Girl with the Dragon Tattoo (2009) [WtO]
    Por asidman en el foro Thriller / Crimen (+)
    Respuestas: 54
    Último mensaje: 17-05-2014, 15:52:34
  5. Respuestas: 1
    Último mensaje: 16-05-2014, 15:59:04

Miembros que han leído este tema: 15

Permisos de publicación

  • No puedes crear nuevos temas
  • No puedes responder temas
  • No puedes subir archivos adjuntos
  • No puedes editar tus mensajes
  •